<?xml  version="1.0" encoding="UTF-8"?>
<!DOCTYPE svg PUBLIC "-//W3C//DTD SVG 1.0//EN" "http://www.w3.org/TR/2001/REC-SVG-20010904/DTD/svg10.dtd" >
<svg xmlns="http://www.w3.org/2000/svg" >
<metadata>
<version>1.0</version>
<id><![CDATA[Frutiger LT W02 55 Roman]]></id>
<vendor>Monotype Imaging Inc.</vendor>
<credits>
<name>Fonts.com WebFonts</name>
<URL>http://webfonts.fonts.com</URL>
<role>Home of the Web fonts</role>
</credits>
<license>
<URL>http://webfonts.fonts.com/Legal</URL>
</license>
<copyright><![CDATA[Part of the digitally encoded machine readable outline data for producing the Typefaces provided is copyrighted © 1981 - 2009 Linotype GmbH, www.linotype.com. All rights reserved. This software is the property of Linotype GmbH, and may not be reproduced, used, displayed, modified, disclosed or transferred without the express written approval of Linotype GmbH.  The digitally encoded machine readable software for producing the Typefaces licensed to you is copyrighted (c) 1988, 1990, 1994 Adobe Systems. All Rights Reserved. This software is the property of Adobe Systems Incorporated and its licensors, and may not be reproduced, used, displayed, modified, disclosed or transferred without the express written approval of Adobe. Frutiger is a trademark of Linotype GmbH registered in the U.S. Patent and Trademark Office and may be registered in certain other jurisdictions. This typeface is original artwork of Adrian Frutiger. The design may be protected in certain jurisdictions.]]></copyright>
<trademark><![CDATA[Frutiger is a trademark of Linotype GmbH registered in the U.S. Patent and Trademark Office and may be registered in certain other jurisdictions.]]></trademark>
<licensee>
<name></name>
</licensee>
</metadata>
<defs >
<font horiz-adv-x="537" id="70b07d32-76f5-474e-83b0-7d5a3fefb15b">
<font-face font-family="" panose-1="2 11 5 3 3 5 4 2 2 4" ascent="935" descent="-250" units-per-em="1000" alphabetic="0">
</font-face>
<missing-glyph horiz-adv-x="0" />

<glyph unicode="&#xA;" />
<glyph unicode="&#xD;" horiz-adv-x="0" />
<glyph unicode=" " horiz-adv-x="278" />
<glyph unicode="!" horiz-adv-x="389" d="M139 112H251V0H139V112ZM238 196H152L139 698H251L238 196Z"  />
<glyph unicode="&quot;" horiz-adv-x="556" d="M159 698H247V453H159V698ZM309 698H397V453H309V698Z"  />
<glyph unicode="#" horiz-adv-x="556" d="M346 414H228L210 284H328L346 414ZM123 208H28V284H134L152 414H56V490H163L192 698H268L239 490H357L386 698H462L433 490H528V414H422L404 284H499V208H393L364 0H288L317 208H199L170 0H94L123 208Z"  />
<glyph unicode="$" horiz-adv-x="556" d="M247 -12H235Q191 -12 155 -5T83 17L95 113Q123 93 156 85T233 76H247V319L213 336Q184 351 159 368T115 406T86 456T75 520Q75 558 88 589T125 645T179 684T247 706V806H305V710Q381 708 448 685L434 593Q385 622 315 622H305V405L363 373Q391 358 413 341T450 303T473 256T481 195Q481 154 469 120T433 60T378 17T305 -6V-106H247V-12ZM305 87Q337 97 356 126T375 189Q375 230 355 252T305 290V87ZM247 614Q215 602 198 582T181 523Q181 491 202 471T247 435V614Z"  />
<glyph unicode="%" horiz-adv-x="1000" d="M260 380Q282 380 294 394T313 429T320 472T322 510Q322 527 322 549T316 592T298 626T260 640Q237 640 225 626T206 591T199 548T198 510Q198 495 199 473T206 430T224 395T260 380ZM740 -12Q697 -12 668 5T622 50T598 114T590 188Q590 228 596 264T619 328T665 372T740 388Q785 388 814 372T860 328T883 264T890 188Q890 150 883 114T858 50T812 5T740 -12ZM680 720H752L319 -22H247L680 720ZM740 58Q762 58 774 72T793 107T800 150T802 188Q802 205 802 227T796 270T778 304T740 318Q717 318 705 304T686 269T679 226T678 188Q678 173 679 151T686 108T704 73T740 58ZM260 310Q217 310 188 327T142 372T118 436T110 510Q110 550 116 586T139 650T185 694T260 710Q305 710 334 694T380 650T403 586T410 510Q410 472 403 436T378 372T332 327T260 310Z"  />
<glyph unicode="&amp;" horiz-adv-x="722" d="M261 544Q261 509 280 480T323 426Q339 433 357 445T391 472T417 507T428 548Q428 596 405 615T345 634Q310 634 286 612T261 544ZM189 190Q189 161 200 138T230 99T274 73T326 64Q350 64 370 71T407 88T435 110T455 131L287 328Q267 314 250 301T219 271T197 236T189 190ZM648 377Q645 335 638 301T620 238T596 185T568 138L690 0H565L508 68Q470 25 423 7T308 -12Q256 -12 215 2T144 41T99 103T83 183Q83 262 125 310T239 387Q211 421 189 458T167 546Q167 588 181 619T220 670T278 700T349 710Q383 710 414 701T470 673T508 623T522 552Q522 519 509 491T473 440T424 400T369 370L511 208Q531 240 540 278T554 377H648Z"  />
<glyph unicode="&apos;" horiz-adv-x="278" d="M95 698H183V453H95V698Z"  />
<glyph unicode="(" horiz-adv-x="333" d="M229 -140Q195 -89 165 -37T113 71T78 186T65 308Q65 372 78 430T113 544T165 651T229 756H319Q290 705 263 651T213 541T178 427T165 308Q165 248 178 190T212 75T261 -35T319 -140H229Z"  />
<glyph unicode=")" horiz-adv-x="333" d="M104 756Q138 705 168 652T220 544T255 430T268 308Q268 244 255 186T220 72T168 -35T104 -140H14Q43 -89 70 -35T120 75T155 189T168 308Q168 368 155 426T121 541T72 651T14 756H104Z"  />
<glyph unicode="*" horiz-adv-x="556" d="M278 448L196 310L122 360L232 483L72 516L100 601L251 539L235 698H326L311 539L457 601L484 516L327 483L434 360L359 310L278 448Z"  />
<glyph unicode="+" horiz-adv-x="600" d="M47 297H256V506H344V297H553V209H344V0H256V209H47V297Z"  />
<glyph unicode="&#x2c;" horiz-adv-x="278" d="M83 112H195L110 -133H20L83 112Z"  />
<glyph unicode="-" horiz-adv-x="333" d="M38 307H295V231H38V307Z"  />
<glyph unicode="." horiz-adv-x="278" d="M83 112H195V0H83V112Z"  />
<glyph unicode="/" horiz-adv-x="278" d="M215 710H303L63 -12H-25L215 710Z"  />
<glyph unicode="0" horiz-adv-x="556" d="M147 349Q147 327 148 298T154 238T167 177T190 123T226 85T278 70Q308 70 329 84T365 123T388 177T401 238T407 298T409 349Q409 382 405 429T387 521T347 597T278 628Q235 628 209 597T170 522T152 430T147 349ZM41 349Q41 406 51 470T87 587T159 675T278 710Q350 710 396 675T469 587T505 470T515 349Q515 292 505 228T469 111T397 23T278 -12Q206 -12 160 23T87 111T51 228T41 349Z"  />
<glyph unicode="1" horiz-adv-x="556" d="M269 583L162 491L109 558L280 698H369V0H269V583Z"  />
<glyph unicode="2" horiz-adv-x="556" d="M50 107Q77 131 109 159T175 219Q204 246 239 280T304 352T355 433T376 517Q376 541 366 561T337 597T295 620T242 628Q195 628 153 614T82 583L72 669Q116 688 161 699T255 710Q302 710 343 698T415 660T464 598T482 511Q482 467 462 423T410 338T344 260T280 194T217 135T157 82H492V0H50V107Z"  />
<glyph unicode="3" horiz-adv-x="556" d="M145 404H201Q228 404 258 409T314 428T357 463T374 518Q374 548 363 569T333 603T289 622T237 628Q189 628 152 617T82 590L76 679Q111 692 158 701T251 710Q297 710 338 699T411 665T461 605T480 520Q480 487 468 460T435 413T387 380T330 361V359Q400 345 443 303T486 186Q486 126 463 88T401 27T313 -3T211 -12Q169 -12 127 -4T51 15L57 108Q84 94 124 82T210 70Q238 70 268 76T323 96T364 133T380 189Q380 228 366 253T327 294T272 316T206 322H145V404Z"  />
<glyph unicode="4" horiz-adv-x="556" d="M344 159H19V241L301 698H444V241H532V159H444V0H344V159ZM344 616H342L124 241H344V616Z"  />
<glyph unicode="5" horiz-adv-x="556" d="M478 616H188L182 429Q196 433 219 436T272 439Q318 439 359 423T431 378T480 309T498 223Q498 166 477 122T419 48T334 3T231 -12Q174 -12 137 -4T81 11L84 105Q116 87 149 79T229 70Q260 70 289 79T341 105T378 149T392 208Q392 245 379 273T343 320T289 348T223 357Q178 357 147 350T88 331L94 698H478V616Z"  />
<glyph unicode="6" horiz-adv-x="556" d="M405 217Q405 241 398 266T377 311T340 344T288 357Q257 357 233 346T192 316T167 272T158 217Q158 192 165 166T188 119T227 84T281 70Q312 70 335 82T374 115T397 162T405 217ZM465 599Q410 628 341 628Q292 628 256 607T196 551T159 470T146 374L148 375Q183 410 220 424T301 439Q352 439 391 422T456 376T497 306T511 219Q511 165 494 122T447 50T376 4T287 -12Q214 -12 168 18T97 96T62 203T52 323Q52 394 65 463T110 587T197 676T335 710Q353 710 374 708T415 703T453 696T479 688L465 599Z"  />
<glyph unicode="7" horiz-adv-x="556" d="M491 616L233 0H123L389 616H49V698H491V616Z"  />
<glyph unicode="8" horiz-adv-x="556" d="M155 529Q155 493 191 465T299 402Q330 426 348 443T375 476T388 507T391 540Q391 565 380 581T351 608T313 623T273 628Q256 628 236 622T197 604T167 573T155 529ZM412 180Q413 217 400 240T365 278T316 305T260 330Q239 315 218 303T181 275T154 240T144 189Q144 160 156 138T188 101T233 78T285 70Q336 70 373 98T412 180ZM276 -12Q232 -12 189 0T113 37T59 98T38 183Q38 253 80 299T186 367V369Q148 382 123 402T82 445T61 493T55 543Q55 576 70 606T115 660T186 696T281 710Q333 710 373 697T440 661T482 610T497 553Q497 524 491 499T469 453T430 412T371 373Q434 351 476 305T518 188Q518 135 499 98T446 36T369 0T276 -12Z"  />
<glyph unicode="9" horiz-adv-x="556" d="M151 481Q151 457 158 432T179 387T216 354T268 341Q299 341 323 352T364 382T389 426T398 481Q398 506 391 532T368 579T329 614T275 628Q243 628 220 616T182 583T159 536T151 481ZM91 99Q146 70 215 70Q264 70 300 91T360 147T397 228T410 324L408 323Q373 288 336 274T255 259Q204 259 165 276T100 322T59 392T45 479Q45 533 62 576T109 648T180 694T269 710Q342 710 388 680T459 602T494 495T504 375Q504 304 491 235T446 111T359 22T221 -12Q203 -12 182 -10T141 -5T103 2T77 10L91 99Z"  />
<glyph unicode=":" horiz-adv-x="278" d="M83 112H195V0H83V112ZM195 398H83V510H195V398Z"  />
<glyph unicode=";" horiz-adv-x="278" d="M195 398H83V510H195V398ZM83 112H195L110 -133H20L83 112Z"  />
<glyph unicode="&lt;" horiz-adv-x="600" d="M554 426L160 253L554 80V-8L46 215V291L554 514V426Z"  />
<glyph unicode="=" horiz-adv-x="600" d="M47 192H553V104H47V192ZM47 402H553V314H47V402Z"  />
<glyph unicode="&gt;" horiz-adv-x="600" d="M46 80L440 253L46 426V514L554 291V215L46 -8V80Z"  />
<glyph unicode="?" horiz-adv-x="500" d="M195 112H307V0H195V112ZM204 217Q204 241 207 259T217 295T236 328T266 366Q279 382 294 399T321 435T342 475T350 521Q350 547 340 566T313 597T275 616T229 622Q179 622 143 611T81 582L74 677Q107 691 148 700T240 710Q281 710 320 699T389 664T437 607T456 528Q456 489 442 458T408 399T363 344T319 287Q307 269 303 252T298 214V196H204V217Z"  />
<glyph unicode="@" horiz-adv-x="800" d="M548 278Q545 267 543 256T540 236Q541 225 544 218T558 211Q580 211 601 226T640 266T669 326T680 398Q680 456 659 501T602 577T518 624T415 640Q352 640 300 618T210 555T153 462T132 347Q132 276 154 222T215 132T308 77T425 58Q488 58 545 81T642 147H718Q669 72 591 30T421 -12Q344 -12 276 12T158 82T79 196T50 349Q50 431 79 497T158 611T274 684T416 710Q482 710 542 689T649 628T722 534T750 413Q750 342 724 290T660 203T582 152T513 135Q490 135 474 149T455 191H453Q433 170 404 153T344 135Q313 135 286 148T239 182T208 233T196 295Q196 342 211 387T255 467T322 524T411 546Q446 546 474 531T525 480L540 532H615L548 278ZM366 217Q394 217 417 232T458 272T484 325T494 380Q494 416 472 440T417 464Q387 464 363 450T321 412T294 362T284 308Q284 268 306 243T366 217Z"  />
<glyph unicode="A" horiz-adv-x="722" d="M359 604L220 258H498L359 604ZM310 698H415L710 0H601L530 176H188L117 0H12L310 698Z"  />
<glyph unicode="B" horiz-adv-x="611" d="M183 400H238Q274 400 306 403T363 417T402 451T417 512Q417 543 405 563T374 595T333 611T288 616H183V400ZM183 82H258Q292 82 323 86T377 103T415 138T429 195Q429 235 413 259T371 297T313 314T248 318H183V82ZM83 698H272Q326 698 371 689T449 658T499 604T517 522Q517 450 478 412T373 356V354Q409 351 438 338T489 304T523 253T535 186Q535 130 514 94T456 37T371 8T269 0H83V698Z"  />
<glyph unicode="C" horiz-adv-x="611" d="M571 583Q505 622 427 622Q367 622 318 602T233 545T178 458T159 349Q159 287 179 237T236 151T320 96T422 76Q441 76 462 78T503 85T542 96T574 110L580 13Q540 -4 496 -8T421 -12Q338 -12 270 13T154 86T80 201T53 352Q53 433 80 499T157 612T274 684T422 710Q463 710 502 704T579 680L571 583Z"  />
<glyph unicode="D" horiz-adv-x="722" d="M183 88H288Q417 88 486 152T555 351Q555 412 536 460T482 541T401 592T300 610H183V88ZM83 698H289Q367 698 434 675T552 607T632 500T661 355Q661 267 635 201T561 90T444 23T289 0H83V698Z"  />
<glyph unicode="E" horiz-adv-x="556" d="M94 698H485V610H194V406H459V318H194V88H485V0H94V698Z"  />
<glyph unicode="F" horiz-adv-x="500" d="M83 698H454V610H183V406H442V318H183V0H83V698Z"  />
<glyph unicode="G" horiz-adv-x="722" d="M619 574Q582 598 539 610T427 622Q367 622 318 602T233 544T178 457T159 349Q159 287 179 237T236 151T320 96T422 76Q448 76 465 77T494 80T516 84T534 88V300H387V382H634V19Q605 9 554 -1T421 -12Q338 -12 270 13T154 86T80 201T53 352Q53 433 80 499T157 612T274 684T422 710Q460 710 489 708T541 700T584 689T627 675L619 574Z"  />
<glyph unicode="H" horiz-adv-x="722" d="M94 698H194V406H528V698H628V0H528V318H194V0H94V698Z"  />
<glyph unicode="I" horiz-adv-x="278" d="M89 698H189V0H89V698Z"  />
<glyph unicode="J" horiz-adv-x="389" d="M21 86Q38 80 54 78T84 76Q118 76 140 85T175 112T193 155T198 212V698H298V180Q298 143 289 109T257 47T197 4T102 -12Q52 -12 21 0V86Z"  />
<glyph unicode="K" horiz-adv-x="667" d="M94 698H194V391L492 698H625L297 368L651 0H505L194 342V0H94V698Z"  />
<glyph unicode="L" horiz-adv-x="500" d="M88 698H188V88H480V0H88V698Z"  />
<glyph unicode="M" horiz-adv-x="944" d="M90 698H255L474 118L689 698H854V0H754V604H752L521 0H423L192 604H190V0H90V698Z"  />
<glyph unicode="N" horiz-adv-x="722" d="M88 698H224L532 136H534V698H634V0H506L190 574H188V0H88V698Z"  />
<glyph unicode="O" horiz-adv-x="778" d="M53 349Q53 427 75 493T141 607T247 682T389 710Q468 710 530 683T636 607T702 493T725 349Q725 269 703 203T637 89T532 15T389 -12Q309 -12 247 14T141 89T76 203T53 349ZM159 349Q159 297 172 248T214 161T285 99T389 76Q449 76 492 99T564 160T605 248T619 349Q619 402 605 451T562 539T490 599T389 622Q331 622 288 600T217 539T174 452T159 349Z"  />
<glyph unicode="P" horiz-adv-x="556" d="M83 698H266Q320 698 367 688T450 653T507 589T528 489Q528 431 507 391T452 326T373 290T281 279H183V0H83V698ZM183 367H282Q305 367 330 373T375 394T409 431T422 490Q422 523 407 546T368 583T318 603T268 610H183V367Z"  />
<glyph unicode="Q" horiz-adv-x="778" d="M445 -8Q431 -10 418 -11T389 -12Q309 -12 247 14T141 89T76 203T53 349Q53 427 75 493T141 607T247 682T389 710Q468 710 530 683T636 607T702 493T725 349Q725 231 677 145T537 18L699 -129H575L445 -8ZM159 349Q159 297 172 248T214 161T285 99T389 76Q449 76 492 99T564 160T605 248T619 349Q619 402 605 451T562 539T490 599T389 622Q331 622 288 600T217 539T174 452T159 349Z"  />
<glyph unicode="R" horiz-adv-x="611" d="M183 398H268Q340 398 379 427T419 507Q419 555 384 582T279 610H183V398ZM83 698H254Q306 698 354 692T441 666T502 609T525 509Q525 477 514 450T484 403T438 369T381 350V348Q404 339 418 325T449 278L581 0H467L360 242Q348 267 336 281T310 301T280 309T243 310H183V0H83V698Z"  />
<glyph unicode="S" horiz-adv-x="500" d="M406 593Q387 600 372 605T341 615T310 620T275 622Q254 622 233 618T193 603T164 574T153 529Q153 495 175 474T230 434T303 399T375 355T431 291T453 196Q453 140 433 101T378 36T297 0T198 -12Q161 -12 126 -3T55 17L65 110Q78 105 95 99T131 88T170 80T210 76Q231 76 255 82T300 102T333 137T347 190Q347 229 325 253T270 296T197 332T125 372T69 431T47 520Q47 566 64 601T112 661T183 697T271 710Q306 710 345 704T420 685L406 593Z"  />
<glyph unicode="T" horiz-adv-x="556" d="M228 610H11V698H545V610H328V0H228V610Z"  />
<glyph unicode="U" horiz-adv-x="722" d="M632 289Q632 141 562 65T361 -12Q231 -12 161 64T90 289V698H190V302Q190 252 198 211T227 139T280 93T361 76Q409 76 442 92T495 139T523 210T532 302V698H632V289Z"  />
<glyph unicode="V" horiz-adv-x="667" d="M394 0H269L6 698H118L333 88H335L556 698H661L394 0Z"  />
<glyph unicode="W" horiz-adv-x="1000" d="M2 698H112L279 100H281L430 698H572L723 100H725L892 698H998L783 0H654L502 610H500L347 0H213L2 698Z"  />
<glyph unicode="X" horiz-adv-x="667" d="M265 363L31 698H151L337 430L522 698H636L401 365L659 0H533L327 296L128 0H8L265 363Z"  />
<glyph unicode="Y" horiz-adv-x="667" d="M284 292L11 698H128L336 385L539 698H656L384 292V0H284V292Z"  />
<glyph unicode="Z" horiz-adv-x="556" d="M32 90L394 610H44V698H509V608L148 88H515V0H32V90Z"  />
<glyph unicode="[" horiz-adv-x="333" d="M95 756H284V686H183V-70H284V-140H95V756Z"  />
<glyph unicode="\" horiz-adv-x="278" d="M-25 710H63L303 -12H215L-25 710Z"  />
<glyph unicode="]" horiz-adv-x="333" d="M238 -140H49V-70H150V686H49V756H238V-140Z"  />
<glyph unicode="^" horiz-adv-x="600" d="M259 698H341L540 294H450L300 606L150 294H60L259 698Z"  />
<glyph unicode="_" horiz-adv-x="500" d="M500 -75V-125H0V-75H500Z"  />
<glyph unicode="`" horiz-adv-x="278" d="M205 581H138L7 725H116L205 581Z"  />
<glyph unicode="a" horiz-adv-x="556" d="M383 243Q368 243 353 244T323 245Q304 245 274 243T216 230T167 201T146 147Q146 127 155 112T177 86T208 70T241 64Q311 64 347 102T383 198V243ZM104 474Q139 495 181 508T272 522Q382 522 429 469T477 311V100Q477 56 478 34T481 0H393V66H391Q383 54 369 41T336 16T291 -4T233 -12Q192 -12 158 -3T98 25T60 75T46 147Q46 195 69 227T128 278T205 306T283 315Q311 315 333 315Q355 315 383 313Q383 379 356 412T257 446Q217 446 178 432T109 394L104 474Z"  />
<glyph unicode="b" horiz-adv-x="611" d="M465 257Q466 291 459 325T434 386T390 429T325 446Q287 446 259 430T211 386T183 325T174 254Q174 222 182 189T209 127T255 82T324 64Q362 64 389 83T433 130T458 193T465 257ZM80 750H174V440H176Q198 475 238 498T345 522Q400 522 441 501T510 445T551 362T565 264Q565 211 553 162T514 74T446 12T346 -12Q312 -12 284 -4T234 16T197 43T172 72H170V0H80V750Z"  />
<glyph unicode="c" horiz-adv-x="444" d="M404 424Q377 435 351 440T302 446Q263 446 233 430T181 387T149 326T138 255Q138 221 147 187T177 126T230 81T308 64Q332 64 359 71T409 93L416 9Q387 -5 356 -8T298 -12Q240 -12 193 9T111 66T57 151T38 255Q38 313 56 362T109 446T191 502T298 522Q327 522 359 516T412 502L404 424Z"  />
<glyph unicode="d" horiz-adv-x="611" d="M146 257Q145 227 153 193T178 131T222 83T287 64Q327 64 355 81T402 127T428 188T437 254Q437 290 428 324T400 386T353 429T286 446Q248 446 221 430T177 387T153 326T146 257ZM441 72H439Q430 58 414 43T377 16T327 -4T265 -12Q207 -12 166 11T98 74T59 162T46 264Q46 315 59 362T100 444T169 501T266 522Q333 522 373 499T435 440H437V750H531V0H441V72Z"  />
<glyph unicode="e" horiz-adv-x="556" d="M410 304Q410 333 402 359T377 404T337 435T283 446Q248 446 224 433T183 400T158 354T146 304H410ZM471 21Q457 16 442 11T409 0T366 -8T310 -12Q242 -12 193 8T111 64T62 151T46 264Q46 321 63 368T111 449T187 503T285 522Q349 522 392 500T461 440T498 348T510 234H146Q146 196 159 165T196 112T250 77T314 64Q337 64 361 69T407 82T445 99T471 115V21Z"  />
<glyph unicode="f" horiz-adv-x="389" d="M141 434H21V510H141V557Q141 603 148 641T174 706T226 747T312 762Q330 762 345 760T375 756L371 680Q363 683 351 684T326 686Q296 686 278 677T251 652T238 613T235 565V510H370V434H235V0H141V434Z"  />
<glyph unicode="g" horiz-adv-x="611" d="M288 76Q321 76 348 89T395 126T426 181T437 249Q437 289 428 324T400 387T353 430T288 446Q252 446 226 429T182 384T155 323T146 256Q146 220 156 188T184 130T228 91T288 76ZM531 22Q531 -94 468 -158T268 -222Q248 -222 229 -221T187 -215T141 -205T85 -187L95 -100Q122 -112 144 -121T188 -135T231 -143T279 -146Q354 -146 395 -99T437 29V79H435Q405 39 359 20T264 0Q209 0 168 20T100 76T60 156T46 251Q46 300 60 348T102 435T173 498T274 522Q342 522 381 499T442 434H444V510H531V22Z"  />
<glyph unicode="h" horiz-adv-x="611" d="M80 750H174V437H176Q202 478 244 500T340 522Q439 522 485 464T531 303V0H437V264Q437 354 414 398T329 446Q289 446 260 431T211 388T183 321T174 236V0H80V750Z"  />
<glyph unicode="i" horiz-adv-x="278" d="M192 624H86V730H192V624ZM92 510H186V0H92V510Z"  />
<glyph unicode="j" horiz-adv-x="278" d="M192 624H86V730H192V624ZM-13 -137Q-4 -139 3 -139T25 -140Q58 -140 75 -111T92 -32V510H186V-18Q186 -46 184 -81T167 -147T124 -200T42 -222Q27 -222 11 -221T-16 -218L-13 -137Z"  />
<glyph unicode="k" horiz-adv-x="556" d="M80 750H174V303L379 510H507L270 284L537 0H402L174 262V0H80V750Z"  />
<glyph unicode="l" horiz-adv-x="278" d="M92 750H186V0H92V750Z"  />
<glyph unicode="m" horiz-adv-x="889" d="M79 510H167V436H169Q196 481 235 501T331 522Q375 522 415 499T476 423Q489 450 509 469T551 500T595 517T634 522Q683 522 716 507T771 466T801 405T811 327V0H717V304Q717 328 714 353T700 398T672 432T626 446Q590 446 565 430T523 388T500 327T492 257V0H398V304Q398 328 395 353T381 398T353 432T307 446Q271 446 246 430T204 388T181 327T173 257V0H79V510Z"  />
<glyph unicode="n" horiz-adv-x="611" d="M80 510H171V429H173Q194 473 240 497T340 522Q439 522 485 464T531 303V0H437V264Q437 354 414 398T329 446Q289 446 260 431T211 388T183 321T174 236V0H80V510Z"  />
<glyph unicode="o" horiz-adv-x="611" d="M146 255Q146 221 155 187T184 126T234 81T306 64Q347 64 377 81T426 125T455 187T465 255Q465 291 454 325T423 387T373 430T306 446Q268 446 239 430T189 387T157 326T146 255ZM46 255Q46 313 64 362T117 446T199 502T306 522Q364 522 412 502T494 447T546 362T565 255Q565 200 546 152T493 67T411 9T306 -12Q248 -12 201 9T119 66T65 151T46 255Z"  />
<glyph unicode="p" horiz-adv-x="611" d="M465 257Q466 291 459 325T434 386T390 429T325 446Q287 446 259 430T211 386T183 325T174 254Q174 222 182 189T209 127T255 82T324 64Q362 64 389 83T433 130T458 193T465 257ZM80 510H170V438H172Q181 452 196 467T234 494T283 514T345 522Q400 522 441 501T510 445T551 362T565 264Q565 211 553 162T514 74T446 12T346 -12Q278 -12 238 11T176 70H174V-210H80V510Z"  />
<glyph unicode="q" horiz-adv-x="611" d="M146 257Q145 227 153 193T178 131T222 83T287 64Q327 64 355 81T402 127T428 188T437 254Q437 290 428 324T400 386T353 429T286 446Q248 446 221 430T177 387T153 326T146 257ZM531 -210H437V67H435Q413 31 368 10T265 -12Q207 -12 166 11T98 74T59 162T46 264Q46 315 59 362T100 444T169 501T266 522Q300 522 327 514T377 494T414 467T439 437H441V510H531V-210Z"  />
<glyph unicode="r" horiz-adv-x="389" d="M80 510H168V431H170Q189 471 225 496T303 522Q324 522 337 520T365 515V431Q352 436 339 438T313 440Q250 440 212 384T174 232V0H80V510Z"  />
<glyph unicode="s" horiz-adv-x="389" d="M42 100Q56 91 72 84T104 73T134 66T159 64Q175 64 192 67T223 79T246 102T255 137Q255 160 239 176T198 205T145 232T92 263T51 305T34 365Q34 405 48 434T86 483T143 512T214 522Q247 522 275 516T331 502L323 420Q315 425 302 429T274 438T246 444T224 446Q188 446 161 431T134 384Q134 358 150 342T191 313T244 288T297 258T338 214T355 147Q355 106 340 76T300 27T243 -2T177 -12Q141 -12 105 -7T37 16L42 100Z"  />
<glyph unicode="t" horiz-adv-x="389" d="M351 434H216V155Q216 110 239 87T295 64Q317 64 332 69T359 82V2Q343 -3 323 -7T279 -12Q206 -12 164 23T122 136V434H7V510H122V628L216 658V510H351V434Z"  />
<glyph unicode="u" horiz-adv-x="611" d="M531 0H440V81H438Q417 37 371 13T271 -12Q172 -12 126 46T80 207V510H174V246Q174 156 197 112T282 64Q322 64 351 79T400 122T428 188T437 274V510H531V0Z"  />
<glyph unicode="v" horiz-adv-x="500" d="M306 0H194L11 510H114L252 94H254L395 510H489L306 0Z"  />
<glyph unicode="w" horiz-adv-x="833" d="M657 0H548L416 428H414L285 0H176L12 510H115L232 88H234L364 510H475L603 88H605L729 510H821L657 0Z"  />
<glyph unicode="x" horiz-adv-x="500" d="M194 267L28 510H145L256 328L369 510H474L310 267L490 0H374L248 200L122 0H10L194 267Z"  />
<glyph unicode="y" horiz-adv-x="500" d="M42 -138Q51 -141 62 -143T86 -146Q117 -146 138 -128T173 -87T192 -44T198 -20Q198 -12 192 4T180 34L7 510H110L247 88H249L389 510H484L296 -11Q283 -48 268 -85T232 -153T178 -203T100 -222Q77 -222 63 -220T36 -215L42 -138Z"  />
<glyph unicode="z" horiz-adv-x="500" d="M43 82L337 434H57V510H446V428L152 76H457V0H43V82Z"  />
<glyph unicode="{" horiz-adv-x="333" d="M314 686H261Q246 686 236 680T221 662T213 638T211 610V429Q211 396 201 374T175 338T145 318T119 309V307Q129 306 144 300T175 281T200 244T211 184V6Q211 -8 213 -21T220 -46T236 -63T261 -70H314V-140H236Q218 -140 198 -132T162 -108T134 -69T123 -14V168Q123 193 115 213T95 246T68 266T37 273V343Q52 343 67 350T95 369T115 400T123 443V630Q123 661 134 684T161 724T198 748T236 756H314V686Z"  />
<glyph unicode="|" horiz-adv-x="222" d="M155 750V-250H67V750H155Z"  />
<glyph unicode="}" horiz-adv-x="333" d="M19 -70H72Q87 -70 97 -64T112 -46T120 -22T122 6V187Q122 220 132 242T158 278T188 298T214 307V309Q204 310 189 316T158 335T133 372T122 432V610Q122 624 120 637T113 662T97 679T72 686H19V756H97Q115 756 135 748T171 724T199 685T210 630V448Q210 422 218 403T238 370T265 350T296 343V273Q281 273 266 266T238 247T218 216T210 173V-14Q210 -45 199 -68T172 -108T135 -132T97 -140H19V-70Z"  />
<glyph unicode="~" horiz-adv-x="600" d="M531 263Q523 247 512 232T485 205T451 186T406 178Q380 178 352 187T295 209Q267 221 240 233T193 246Q178 246 166 240T143 223T123 199T105 173L69 243Q77 259 88 274T115 301T149 320T194 328Q220 328 248 319T305 297Q333 285 360 273T407 260Q422 260 434 266T457 283T477 307T495 333L531 263Z"  />
<glyph unicode="&#xA0;" horiz-adv-x="278" />
<glyph unicode="&#xA1;" horiz-adv-x="389" d="M139 510H251V398H139V510ZM251 -188H139L152 314H238L251 -188Z"  />
<glyph unicode="&#xA2;" horiz-adv-x="556" d="M219 23Q157 58 123 119T89 255Q89 313 107 362T160 446T242 502T349 522Q352 522 355 522Q359 522 363 521L396 634H453L418 515Q432 512 443 509T463 502L455 424Q425 437 397 441L292 76Q306 71 323 68T359 64Q383 64 410 71T460 93L467 9Q438 -5 407 -8T349 -12Q306 -12 270 0L231 -133H174L219 23ZM341 445Q304 442 276 425T229 382T199 323T189 255Q189 216 202 177T244 109L341 445Z"  />
<glyph unicode="&#xA3;" horiz-adv-x="556" d="M59 88H150V348H71V406H150V462Q150 516 165 561T211 640T287 691T392 710Q430 710 458 705T510 691L502 598Q482 607 458 614T402 622Q324 622 287 578T250 455V406H411V348H250V88H497V0H59V88Z"  />
<glyph unicode="&#xA4;" horiz-adv-x="556" d="M118 349Q118 314 130 284T165 232T216 196T278 183Q312 183 341 196T392 233T426 286T438 349Q438 382 426 412T393 465T342 501T278 515Q245 515 216 502T165 467T131 414T118 349ZM80 203Q55 232 43 269T30 349Q30 390 42 429T80 497L24 551L75 603L130 548Q159 571 198 584T278 597Q320 597 359 584T428 548L482 603L532 551L478 497Q502 470 514 431T526 349Q526 308 514 270T478 203L532 146L482 95L428 152Q399 127 360 114T278 101Q236 101 198 113T130 152L75 95L24 146L80 203Z"  />
<glyph unicode="&#xA5;" horiz-adv-x="556" d="M229 162H88V220H229V292L221 308H88V366H189L6 698H117L281 385L439 698H550L369 366H470V308H337L329 292V220H470V162H329V0H229V162Z"  />
<glyph unicode="&#xA6;" horiz-adv-x="222" d="M155 175V-175H67V175H155ZM155 675V325H67V675H155Z"  />
<glyph unicode="&#xA7;" horiz-adv-x="556" d="M172 324Q172 294 194 274T246 240T307 217T359 198Q373 215 384 232T395 273Q395 304 374 324T322 357T261 381T209 402Q172 374 172 324ZM98 -7Q134 -26 176 -34T263 -42Q284 -42 305 -37T344 -20T371 8T382 49Q382 75 360 91T305 120T233 146T161 178T106 228T84 305Q84 348 102 377T157 429Q123 448 106 478T88 548Q88 590 107 620T156 671T224 700T298 710Q335 710 370 705T442 691L433 600Q406 612 373 620T311 628Q293 628 271 625T229 614T196 591T182 552Q182 522 204 504T260 473T332 447T405 415T460 367T483 292Q483 247 464 220T412 166Q441 147 458 117T476 52Q476 4 455 -29T400 -84T327 -114T250 -124Q211 -124 171 -119T89 -99L98 -7Z"  />
<glyph unicode="&#xA8;" horiz-adv-x="277" d="M174 730H268V624H174V730ZM10 730H104V624H10V730Z"  />
<glyph unicode="&#xA9;" horiz-adv-x="800" d="M127 349Q127 286 148 233T207 140T293 80T400 58Q457 58 506 79T593 140T651 232T673 349Q673 412 652 465T593 558T507 618T400 640Q343 640 294 619T207 558T149 466T127 349ZM39 349Q39 424 67 489T145 604T259 681T400 710Q475 710 540 682T655 604T732 490T761 349Q761 274 733 209T655 94T541 17T400 -12Q325 -12 260 16T145 94T68 208T39 349ZM582 285Q570 210 522 170T409 129Q362 129 324 146T260 192T219 262T204 349Q204 396 217 436T257 505T320 550T406 567Q439 567 469 557T522 528T561 481T582 417H509Q501 454 474 475T407 497Q375 497 352 486T312 456T288 409T280 351Q280 318 289 291T314 243T355 211T409 199Q450 199 477 221T509 285H582Z"  />
<glyph unicode="&#xAA;" horiz-adv-x="361" d="M212 535Q197 535 179 534T144 526T116 510T105 481Q105 463 124 455T164 446Q206 446 229 460T252 506V533Q245 533 236 534T212 535ZM63 682Q92 697 121 703T180 710Q215 710 243 705T292 686T323 647T334 583V455Q334 429 336 416T337 396H253V434H251Q234 408 209 398T153 388Q134 388 112 392T70 407T37 436T23 484Q23 516 41 536T85 567T140 583T191 587Q209 587 223 587Q237 587 252 585Q252 605 246 618T230 638T205 649T174 652Q143 652 117 645T66 619L63 682Z"  />
<glyph unicode="&#xAB;" horiz-adv-x="556" d="M253 269L396 471H484L354 269L484 67H396L253 269ZM51 269L194 471H282L152 269L282 67H194L51 269Z"  />
<glyph unicode="&#xAC;" horiz-adv-x="600" d="M47 402H553V104H465V314H47V402Z"  />
<glyph unicode="&#xAD;" horiz-adv-x="333" d="M38 307H295V231H38V307Z"  />
<glyph unicode="&#xAE;" horiz-adv-x="800" d="M337 380H404Q421 380 436 382T462 390T481 408T488 441Q488 459 481 470T461 487T435 495T405 497H337V380ZM261 555H413Q487 555 525 528T564 435Q564 382 536 356T457 325L567 146H489L383 322H337V146H261V555ZM400 58Q457 58 506 79T593 140T651 232T673 349Q673 412 652 465T593 558T507 618T400 640Q343 640 294 619T207 558T149 466T127 349Q127 286 148 233T207 140T293 80T400 58ZM400 -12Q325 -12 260 16T145 94T68 208T39 349Q39 424 67 489T145 604T259 681T400 710Q475 710 540 682T655 604T732 490T761 349Q761 274 733 209T655 94T541 17T400 -12Z"  />
<glyph unicode="&#xAF;" horiz-adv-x="278" d="M-9 673H287V615H-9V673Z"  />
<glyph unicode="&#xB0;" horiz-adv-x="400" d="M121 567Q121 534 144 511T200 488Q233 488 256 511T279 567Q279 600 256 623T200 646Q167 646 144 623T121 567ZM57 567Q57 597 68 623T98 668T144 699T200 710Q230 710 256 699T301 669T332 623T343 567Q343 537 332 511T302 466T256 435T200 424Q170 424 144 435T99 465T68 511T57 567Z"  />
<glyph unicode="&#xB1;" horiz-adv-x="600" d="M47 88H553V0H47V88ZM47 359H256V506H344V359H553V271H344V124H256V271H47V359Z"  />
<glyph unicode="&#xB2;" horiz-adv-x="361" d="M31 358Q41 366 60 381T102 415T148 456T191 500T222 544T235 585Q235 600 227 610T207 627T181 637T155 640Q129 640 102 633T51 611L45 685Q104 710 170 710Q199 710 226 704T275 683T310 645T323 589Q323 558 300 521T245 450T181 390T131 354V352H330V282H31V358Z"  />
<glyph unicode="&#xB3;" horiz-adv-x="361" d="M93 536H139Q153 536 170 539T202 549T227 567T238 593Q238 607 229 616T207 630T178 638T149 640Q121 640 97 634T52 618L48 690Q71 698 103 704T171 710Q201 710 228 704T278 684T313 649T326 597Q326 576 318 560T295 532T262 513T226 502V500Q271 494 300 468T330 395Q330 357 314 334T271 298T211 281T145 276Q111 276 83 281T32 292L42 368Q46 364 56 360T78 353T106 348T136 346Q150 346 168 348T202 356T230 372T242 399Q242 416 233 428T208 449T176 462T142 466H93V536Z"  />
<glyph unicode="&#xB4;" horiz-adv-x="278" d="M162 725H271L140 581H73L162 725Z"  />
<glyph unicode="&#xB5;" horiz-adv-x="611" d="M531 0H440V81H438Q417 37 371 13T271 -12Q242 -12 218 -8T174 8V-210H80V510H174V246Q174 156 197 112T282 64Q322 64 351 79T400 122T428 188T437 274V510H531V0Z"  />
<glyph unicode="&#xB6;" horiz-adv-x="600" d="M236 333Q186 333 146 346T78 383T35 440T20 512Q20 563 37 598T85 656T160 688T256 698H527V-112H439V628H324V-112H236V333Z"  />
<glyph unicode="&#xB7;" horiz-adv-x="278" d="M80 304Q81 328 98 345T140 362Q164 362 181 345T198 304Q199 280 182 262T140 244Q116 244 99 262T80 304Z"  />
<glyph unicode="&#xB8;" horiz-adv-x="278" d="M247 0L201 -60L203 -62Q216 -57 233 -57Q267 -57 291 -76T316 -130Q316 -155 304 -172T273 -201T231 -217T185 -222Q163 -222 142 -217T101 -201L119 -167Q136 -174 150 -178T184 -182Q203 -182 221 -173T240 -136Q240 -116 226 -107T194 -97Q183 -97 172 -99T153 -105L136 -86L200 0H247Z"  />
<glyph unicode="&#xB9;" horiz-adv-x="361" d="M154 628L84 573L50 619L161 704H242V282H154V628Z"  />
<glyph unicode="&#xBA;" horiz-adv-x="397" d="M108 549Q108 529 112 511T127 478T155 455T198 446Q224 446 241 454T269 477T284 510T288 549Q288 591 267 621T198 652Q151 652 130 622T108 549ZM198 388Q159 388 128 401T74 435T39 486T26 549Q26 584 38 613T72 664T127 698T198 710Q237 710 269 698T323 665T358 614T370 549Q370 516 358 487T323 436T269 401T198 388Z"  />
<glyph unicode="&#xBB;" horiz-adv-x="556" d="M303 269L160 67H72L202 269L72 471H160L303 269ZM505 269L362 67H274L404 269L274 471H362L505 269Z"  />
<glyph unicode="&#xBC;" horiz-adv-x="834" d="M661 83H449V144L633 422H749V153H801V83H749V0H661V83ZM661 352H659L531 153H661V352ZM137 628L67 573L33 619L144 704H225V282H137V628ZM576 720H648L215 -22H143L576 720Z"  />
<glyph unicode="&#xBD;" horiz-adv-x="834" d="M502 76Q512 84 531 99T573 133T619 174T662 218T693 262T706 303Q706 318 698 328T678 345T652 355T626 358Q600 358 573 351T522 329L516 403Q575 428 641 428Q670 428 697 422T746 401T781 363T794 307Q794 276 771 239T716 168T652 108T602 72V70H801V0H502V76ZM137 628L67 573L33 619L144 704H225V282H137V628ZM545 720H617L184 -22H112L545 720Z"  />
<glyph unicode="&#xBE;" horiz-adv-x="834" d="M661 83H449V144L633 422H749V153H801V83H749V0H661V83ZM661 352H659L531 153H661V352ZM93 536H139Q153 536 170 539T202 549T227 567T238 593Q238 607 229 616T207 630T178 638T149 640Q121 640 97 634T52 618L48 690Q71 698 103 704T171 710Q201 710 228 704T278 684T313 649T326 597Q326 576 318 560T295 532T262 513T226 502V500Q271 494 300 468T330 395Q330 357 314 334T271 298T211 281T145 276Q111 276 83 281T32 292L42 368Q46 364 56 360T78 353T106 348T136 346Q150 346 168 348T202 356T230 372T242 399Q242 416 233 428T208 449T176 462T142 466H93V536ZM619 720H691L258 -22H186L619 720Z"  />
<glyph unicode="&#xBF;" horiz-adv-x="500" d="M305 398H193V510H305V398ZM296 293Q296 269 293 251T283 215T264 182T234 144Q220 128 206 111T179 75T158 35T150 -11Q150 -37 160 -56T187 -87T225 -106T271 -112Q321 -112 357 -101T419 -72L426 -167Q393 -181 352 -190T260 -200Q219 -200 180 -189T111 -154T63 -97T44 -18Q44 21 58 52T92 111T137 166T181 223Q193 241 197 258T202 296V314H296V293Z"  />
<glyph unicode="&#xC0;" horiz-adv-x="722" d="M359 604L220 258H498L359 604ZM310 698H415L710 0H601L530 176H188L117 0H12L310 698ZM427 749H360L229 893H338L427 749Z"  />
<glyph unicode="&#xC1;" horiz-adv-x="722" d="M359 604L220 258H498L359 604ZM310 698H415L710 0H601L530 176H188L117 0H12L310 698ZM382 893H491L360 749H293L382 893Z"  />
<glyph unicode="&#xC2;" horiz-adv-x="722" d="M359 604L220 258H498L359 604ZM310 698H415L710 0H601L530 176H188L117 0H12L310 698ZM315 893H406L506 749H426L360 847L295 749H216L315 893Z"  />
<glyph unicode="&#xC3;" horiz-adv-x="722" d="M359 604L220 258H498L359 604ZM310 698H415L710 0H601L530 176H188L117 0H12L310 698ZM191 754Q193 770 198 789T214 826T242 854T285 866Q304 866 325 859T366 843T404 827T439 820Q462 818 472 833T485 866H531Q529 850 524 831T508 794T480 766T437 754Q417 754 397 761T356 777T318 793T283 800Q260 802 250 787T237 754H191Z"  />
<glyph unicode="&#xC4;" horiz-adv-x="722" d="M359 604L220 258H498L359 604ZM310 698H415L710 0H601L530 176H188L117 0H12L310 698ZM396 856H490V756H396V856ZM232 856H326V756H232V856Z"  />
<glyph unicode="&#xC5;" horiz-adv-x="722" d="M359 604L220 258H498L359 604ZM310 698H415L710 0H601L530 176H188L117 0H12L310 698ZM361 895Q336 895 318 877T299 833Q299 808 317 790T361 771Q385 771 404 790T423 833Q423 858 405 876T361 895ZM361 935Q382 935 400 927T433 905T455 873T463 833Q463 812 455 794T433 761T401 739T361 731Q340 731 322 739T289 761T267 793T259 833Q259 854 267 872T289 905T321 927T361 935Z"  />
<glyph unicode="&#xC6;" horiz-adv-x="944" d="M488 628H486L266 258H510L488 628ZM424 698H485H581H863V610H586L599 406H845V318H604L618 88H873V0H624H526L515 176H218L113 0H2L424 698Z"  />
<glyph unicode="&#xC7;" horiz-adv-x="611" d="M571 583Q505 622 427 622Q367 622 318 602T233 545T178 458T159 349Q159 287 179 237T236 151T320 96T422 76Q441 76 462 78T503 85T542 96T574 110L580 13Q540 -4 496 -8T421 -12Q415 -12 409 -12Q404 -12 398 -10L360 -60L362 -62Q375 -57 392 -57Q426 -57 450 -76T475 -130Q475 -155 463 -172T432 -201T390 -217T344 -222Q322 -222 301 -217T260 -201L278 -167Q295 -174 309 -178T343 -182Q362 -182 380 -173T399 -136Q399 -116 385 -107T353 -97Q342 -97 331 -99T312 -105L295 -86L353 -7Q284 3 229 32T134 108T74 216T53 352Q53 433 80 499T157 612T274 684T422 710Q463 710 502 704T579 680L571 583Z"  />
<glyph unicode="&#xC8;" horiz-adv-x="556" d="M94 698H485V610H194V406H459V318H194V88H485V0H94V698ZM345 749H278L147 893H256L345 749Z"  />
<glyph unicode="&#xC9;" horiz-adv-x="556" d="M94 698H485V610H194V406H459V318H194V88H485V0H94V698ZM301 893H410L279 749H212L301 893Z"  />
<glyph unicode="&#xCA;" horiz-adv-x="556" d="M94 698H485V610H194V406H459V318H194V88H485V0H94V698ZM232 893H323L423 749H343L277 847L212 749H133L232 893Z"  />
<glyph unicode="&#xCB;" horiz-adv-x="556" d="M94 698H485V610H194V406H459V318H194V88H485V0H94V698ZM312 856H406V756H312V856ZM148 856H242V756H148V856Z"  />
<glyph unicode="&#xCC;" horiz-adv-x="278" d="M89 698H189V0H89V698ZM205 749H138L7 893H116L205 749Z"  />
<glyph unicode="&#xCD;" horiz-adv-x="278" d="M89 698H189V0H89V698ZM162 893H271L140 749H73L162 893Z"  />
<glyph unicode="&#xCE;" horiz-adv-x="278" d="M89 698H189V0H89V698ZM93 893H184L284 749H204L138 847L73 749H-6L93 893Z"  />
<glyph unicode="&#xCF;" horiz-adv-x="278" d="M89 698H189V0H89V698ZM174 856H268V756H174V856ZM10 856H104V756H10V856Z"  />
<glyph unicode="&#xD0;" horiz-adv-x="722" d="M83 342H15V406H83V698H289Q367 698 434 675T552 607T632 500T661 355Q661 267 635 201T561 90T444 23T289 0H83V342ZM183 406H366V342H183V88H288Q417 88 486 152T555 351Q555 407 537 454T484 536T403 590T298 610H183V406Z"  />
<glyph unicode="&#xD1;" horiz-adv-x="722" d="M88 698H224L532 136H534V698H634V0H506L190 574H188V0H88V698ZM191 754Q193 770 198 789T214 826T242 854T285 866Q304 866 325 859T366 843T404 827T439 820Q462 818 472 833T485 866H531Q529 850 524 831T508 794T480 766T437 754Q417 754 397 761T356 777T318 793T283 800Q260 802 250 787T237 754H191Z"  />
<glyph unicode="&#xD2;" horiz-adv-x="778" d="M53 349Q53 427 75 493T141 607T247 682T389 710Q468 710 530 683T636 607T702 493T725 349Q725 269 703 203T637 89T532 15T389 -12Q309 -12 247 14T141 89T76 203T53 349ZM159 349Q159 297 172 248T214 161T285 99T389 76Q449 76 492 99T564 160T605 248T619 349Q619 402 605 451T562 539T490 599T389 622Q331 622 288 600T217 539T174 452T159 349ZM455 749H388L257 893H366L455 749Z"  />
<glyph unicode="&#xD3;" horiz-adv-x="778" d="M53 349Q53 427 75 493T141 607T247 682T389 710Q468 710 530 683T636 607T702 493T725 349Q725 269 703 203T637 89T532 15T389 -12Q309 -12 247 14T141 89T76 203T53 349ZM159 349Q159 297 172 248T214 161T285 99T389 76Q449 76 492 99T564 160T605 248T619 349Q619 402 605 451T562 539T490 599T389 622Q331 622 288 600T217 539T174 452T159 349ZM412 893H521L390 749H323L412 893Z"  />
<glyph unicode="&#xD4;" horiz-adv-x="778" d="M53 349Q53 427 75 493T141 607T247 682T389 710Q468 710 530 683T636 607T702 493T725 349Q725 269 703 203T637 89T532 15T389 -12Q309 -12 247 14T141 89T76 203T53 349ZM159 349Q159 297 172 248T214 161T285 99T389 76Q449 76 492 99T564 160T605 248T619 349Q619 402 605 451T562 539T490 599T389 622Q331 622 288 600T217 539T174 452T159 349ZM343 893H434L534 749H454L388 847L323 749H244L343 893Z"  />
<glyph unicode="&#xD5;" horiz-adv-x="778" d="M53 349Q53 427 75 493T141 607T247 682T389 710Q468 710 530 683T636 607T702 493T725 349Q725 269 703 203T637 89T532 15T389 -12Q309 -12 247 14T141 89T76 203T53 349ZM159 349Q159 297 172 248T214 161T285 99T389 76Q449 76 492 99T564 160T605 248T619 349Q619 402 605 451T562 539T490 599T389 622Q331 622 288 600T217 539T174 452T159 349ZM219 754Q221 770 226 789T242 826T270 854T313 866Q332 866 353 859T394 843T432 827T467 820Q490 818 500 833T513 866H559Q557 850 552 831T536 794T508 766T465 754Q445 754 425 761T384 777T346 793T311 800Q288 802 278 787T265 754H219Z"  />
<glyph unicode="&#xD6;" horiz-adv-x="778" d="M53 349Q53 427 75 493T141 607T247 682T389 710Q468 710 530 683T636 607T702 493T725 349Q725 269 703 203T637 89T532 15T389 -12Q309 -12 247 14T141 89T76 203T53 349ZM159 349Q159 297 172 248T214 161T285 99T389 76Q449 76 492 99T564 160T605 248T619 349Q619 402 605 451T562 539T490 599T389 622Q331 622 288 600T217 539T174 452T159 349ZM425 856H519V756H425V856ZM261 856H355V756H261V856Z"  />
<glyph unicode="&#xD7;" horiz-adv-x="600" d="M68 423L130 485L300 314L470 485L532 423L361 253L532 83L470 21L300 192L130 21L68 83L238 253L68 423Z"  />
<glyph unicode="&#xD8;" horiz-adv-x="778" d="M246 126Q272 103 308 90T389 76Q449 76 492 99T564 160T605 248T619 349Q619 402 605 450T563 537L246 126ZM151 79Q103 127 78 195T53 349Q53 427 75 493T141 607T247 682T389 710Q449 710 499 694T591 648L644 717L680 689L626 618Q675 568 700 500T725 349Q725 269 703 203T637 89T532 15T389 -12Q268 -12 186 49L132 -21L94 5L151 79ZM532 572Q505 595 470 609T389 622Q331 622 288 600T217 539T174 452T159 349Q159 297 172 248T214 160L532 572Z"  />
<glyph unicode="&#xD9;" horiz-adv-x="722" d="M632 289Q632 141 562 65T361 -12Q231 -12 161 64T90 289V698H190V302Q190 252 198 211T227 139T280 93T361 76Q409 76 442 92T495 139T523 210T532 302V698H632V289ZM426 749H359L228 893H337L426 749Z"  />
<glyph unicode="&#xDA;" horiz-adv-x="722" d="M632 289Q632 141 562 65T361 -12Q231 -12 161 64T90 289V698H190V302Q190 252 198 211T227 139T280 93T361 76Q409 76 442 92T495 139T523 210T532 302V698H632V289ZM385 893H494L363 749H296L385 893Z"  />
<glyph unicode="&#xDB;" horiz-adv-x="722" d="M632 289Q632 141 562 65T361 -12Q231 -12 161 64T90 289V698H190V302Q190 252 198 211T227 139T280 93T361 76Q409 76 442 92T495 139T523 210T532 302V698H632V289ZM315 893H406L506 749H426L360 847L295 749H216L315 893Z"  />
<glyph unicode="&#xDC;" horiz-adv-x="722" d="M632 289Q632 141 562 65T361 -12Q231 -12 161 64T90 289V698H190V302Q190 252 198 211T227 139T280 93T361 76Q409 76 442 92T495 139T523 210T532 302V698H632V289ZM396 856H490V756H396V856ZM232 856H326V756H232V856Z"  />
<glyph unicode="&#xDD;" horiz-adv-x="667" d="M284 292L11 698H128L336 385L539 698H656L384 292V0H284V292ZM357 893H466L335 749H268L357 893Z"  />
<glyph unicode="&#xDE;" horiz-adv-x="556" d="M183 265H282Q305 265 330 271T375 292T409 329T422 388Q422 421 407 444T368 481T318 501T268 508H183V265ZM83 698H183V596H266Q320 596 367 586T450 551T507 487T528 387Q528 329 507 289T452 224T373 188T281 177H183V0H83V698Z"  />
<glyph unicode="&#xDF;" horiz-adv-x="611" d="M80 0V474Q80 542 93 595T135 686T210 742T325 762Q361 762 397 750T462 714T510 652T528 566Q528 439 411 403V401Q447 397 474 380T521 338T550 281T560 217Q560 171 546 131T503 60T433 12T339 -6Q314 -6 291 -3T242 8V87Q281 70 321 70Q349 70 374 79T419 107T449 151T460 213Q460 256 446 284T407 328T348 351T272 357V433Q307 433 336 439T385 460T417 500T428 563Q428 587 421 609T399 648T364 676T316 686Q274 686 247 668T203 622T181 558T174 489V0H80Z"  />
<glyph unicode="&#xE0;" horiz-adv-x="556" d="M383 243Q368 243 353 244T323 245Q304 245 274 243T216 230T167 201T146 147Q146 127 155 112T177 86T208 70T241 64Q311 64 347 102T383 198V243ZM104 474Q139 495 181 508T272 522Q382 522 429 469T477 311V100Q477 56 478 34T481 0H393V66H391Q383 54 369 41T336 16T291 -4T233 -12Q192 -12 158 -3T98 25T60 75T46 147Q46 195 69 227T128 278T205 306T283 315Q311 315 333 315Q355 315 383 313Q383 379 356 412T257 446Q217 446 178 432T109 394L104 474ZM344 581H277L146 725H255L344 581Z"  />
<glyph unicode="&#xE1;" horiz-adv-x="556" d="M383 243Q368 243 353 244T323 245Q304 245 274 243T216 230T167 201T146 147Q146 127 155 112T177 86T208 70T241 64Q311 64 347 102T383 198V243ZM104 474Q139 495 181 508T272 522Q382 522 429 469T477 311V100Q477 56 478 34T481 0H393V66H391Q383 54 369 41T336 16T291 -4T233 -12Q192 -12 158 -3T98 25T60 75T46 147Q46 195 69 227T128 278T205 306T283 315Q311 315 333 315Q355 315 383 313Q383 379 356 412T257 446Q217 446 178 432T109 394L104 474ZM301 725H410L279 581H212L301 725Z"  />
<glyph unicode="&#xE2;" horiz-adv-x="556" d="M383 243Q368 243 353 244T323 245Q304 245 274 243T216 230T167 201T146 147Q146 127 155 112T177 86T208 70T241 64Q311 64 347 102T383 198V243ZM104 474Q139 495 181 508T272 522Q382 522 429 469T477 311V100Q477 56 478 34T481 0H393V66H391Q383 54 369 41T336 16T291 -4T233 -12Q192 -12 158 -3T98 25T60 75T46 147Q46 195 69 227T128 278T205 306T283 315Q311 315 333 315Q355 315 383 313Q383 379 356 412T257 446Q217 446 178 432T109 394L104 474ZM232 725H323L423 581H343L277 679L212 581H133L232 725Z"  />
<glyph unicode="&#xE3;" horiz-adv-x="556" d="M383 243Q368 243 353 244T323 245Q304 245 274 243T216 230T167 201T146 147Q146 127 155 112T177 86T208 70T241 64Q311 64 347 102T383 198V243ZM104 474Q139 495 181 508T272 522Q382 522 429 469T477 311V100Q477 56 478 34T481 0H393V66H391Q383 54 369 41T336 16T291 -4T233 -12Q192 -12 158 -3T98 25T60 75T46 147Q46 195 69 227T128 278T205 306T283 315Q311 315 333 315Q355 315 383 313Q383 379 356 412T257 446Q217 446 178 432T109 394L104 474ZM108 586Q110 602 115 621T131 658T159 686T202 698Q221 698 242 691T283 675T321 659T356 652Q379 650 389 665T402 698H448Q446 682 441 663T425 626T397 598T354 586Q334 586 314 593T273 609T235 625T200 632Q177 634 167 619T154 586H108Z"  />
<glyph unicode="&#xE4;" horiz-adv-x="556" d="M383 243Q368 243 353 244T323 245Q304 245 274 243T216 230T167 201T146 147Q146 127 155 112T177 86T208 70T241 64Q311 64 347 102T383 198V243ZM104 474Q139 495 181 508T272 522Q382 522 429 469T477 311V100Q477 56 478 34T481 0H393V66H391Q383 54 369 41T336 16T291 -4T233 -12Q192 -12 158 -3T98 25T60 75T46 147Q46 195 69 227T128 278T205 306T283 315Q311 315 333 315Q355 315 383 313Q383 379 356 412T257 446Q217 446 178 432T109 394L104 474ZM313 730H407V624H313V730ZM149 730H243V624H149V730Z"  />
<glyph unicode="&#xE5;" horiz-adv-x="556" d="M383 243Q368 243 353 244T323 245Q304 245 274 243T216 230T167 201T146 147Q146 127 155 112T177 86T208 70T241 64Q311 64 347 102T383 198V243ZM104 474Q139 495 181 508T272 522Q382 522 429 469T477 311V100Q477 56 478 34T481 0H393V66H391Q383 54 369 41T336 16T291 -4T233 -12Q192 -12 158 -3T98 25T60 75T46 147Q46 195 69 227T128 278T205 306T283 315Q311 315 333 315Q355 315 383 313Q383 379 356 412T257 446Q217 446 178 432T109 394L104 474ZM278 727Q253 727 235 709T216 665Q216 640 234 622T278 603Q302 603 321 622T340 665Q340 690 322 708T278 727ZM278 767Q299 767 317 759T350 737T372 705T380 665Q380 644 372 626T350 593T318 571T278 563Q257 563 239 571T206 593T184 625T176 665Q176 686 184 704T206 737T238 759T278 767Z"  />
<glyph unicode="&#xE6;" horiz-adv-x="889" d="M748 304Q748 329 740 354T715 400T675 433T623 446Q592 446 567 435T524 405T497 360T487 304H748ZM141 148Q141 127 149 111T172 85T204 69T241 64Q275 64 303 78T351 117T382 174T393 242Q382 242 360 243T303 245Q283 245 256 242T203 229T159 200T141 148ZM102 473Q135 494 178 508T271 522Q296 522 322 517T371 502T414 474T447 433Q474 481 522 501T624 522Q689 522 732 498T801 434T837 342T848 234H487Q487 199 499 168T534 114T587 78T654 64Q692 64 730 79T795 117V22Q762 7 725 -2T649 -12Q616 -12 583 -6T519 13T465 50T429 107H427Q419 77 400 55T356 17T300 -5T238 -12Q202 -12 167 -1T104 30T59 81T41 151Q41 204 67 236T131 285T211 309T287 315Q328 315 353 312T393 310Q393 347 382 373T351 415T305 438T249 446Q212 446 174 431T107 394L102 473Z"  />
<glyph unicode="&#xE7;" horiz-adv-x="444" d="M404 424Q377 435 351 440T302 446Q263 446 233 430T181 387T149 326T138 255Q138 221 147 187T177 126T230 81T308 64Q332 64 359 71T409 93L416 9Q387 -5 356 -8T298 -12H294L257 -60L259 -62Q272 -57 289 -57Q323 -57 347 -76T372 -130Q372 -155 360 -172T329 -201T287 -217T241 -222Q219 -222 198 -217T157 -201L175 -167Q192 -174 206 -178T240 -182Q259 -182 277 -173T296 -136Q296 -116 282 -107T250 -97Q239 -97 228 -99T209 -105L192 -86L251 -7Q203 1 164 24T97 83T54 162T38 255Q38 313 56 362T109 446T191 502T298 522Q327 522 359 516T412 502L404 424Z"  />
<glyph unicode="&#xE8;" horiz-adv-x="556" d="M410 304Q410 333 402 359T377 404T337 435T283 446Q248 446 224 433T183 400T158 354T146 304H410ZM471 21Q457 16 442 11T409 0T366 -8T310 -12Q242 -12 193 8T111 64T62 151T46 264Q46 321 63 368T111 449T187 503T285 522Q349 522 392 500T461 440T498 348T510 234H146Q146 196 159 165T196 112T250 77T314 64Q337 64 361 69T407 82T445 99T471 115V21ZM344 581H277L146 725H255L344 581Z"  />
<glyph unicode="&#xE9;" horiz-adv-x="556" d="M410 304Q410 333 402 359T377 404T337 435T283 446Q248 446 224 433T183 400T158 354T146 304H410ZM471 21Q457 16 442 11T409 0T366 -8T310 -12Q242 -12 193 8T111 64T62 151T46 264Q46 321 63 368T111 449T187 503T285 522Q349 522 392 500T461 440T498 348T510 234H146Q146 196 159 165T196 112T250 77T314 64Q337 64 361 69T407 82T445 99T471 115V21ZM301 725H410L279 581H212L301 725Z"  />
<glyph unicode="&#xEA;" horiz-adv-x="556" d="M410 304Q410 333 402 359T377 404T337 435T283 446Q248 446 224 433T183 400T158 354T146 304H410ZM471 21Q457 16 442 11T409 0T366 -8T310 -12Q242 -12 193 8T111 64T62 151T46 264Q46 321 63 368T111 449T187 503T285 522Q349 522 392 500T461 440T498 348T510 234H146Q146 196 159 165T196 112T250 77T314 64Q337 64 361 69T407 82T445 99T471 115V21ZM232 725H323L423 581H343L277 679L212 581H133L232 725Z"  />
<glyph unicode="&#xEB;" horiz-adv-x="556" d="M410 304Q410 333 402 359T377 404T337 435T283 446Q248 446 224 433T183 400T158 354T146 304H410ZM471 21Q457 16 442 11T409 0T366 -8T310 -12Q242 -12 193 8T111 64T62 151T46 264Q46 321 63 368T111 449T187 503T285 522Q349 522 392 500T461 440T498 348T510 234H146Q146 196 159 165T196 112T250 77T314 64Q337 64 361 69T407 82T445 99T471 115V21ZM313 730H407V624H313V730ZM149 730H243V624H149V730Z"  />
<glyph unicode="&#xEC;" horiz-adv-x="278" d="M92 510H186V0H92V510ZM205 581H138L7 725H116L205 581Z"  />
<glyph unicode="&#xED;" horiz-adv-x="278" d="M92 510H186V0H92V510ZM162 725H271L140 581H73L162 725Z"  />
<glyph unicode="&#xEE;" horiz-adv-x="278" d="M92 510H186V0H92V510ZM93 725H184L284 581H204L138 679L73 581H-6L93 725Z"  />
<glyph unicode="&#xEF;" horiz-adv-x="278" d="M92 510H186V0H92V510ZM174 730H268V624H174V730ZM10 730H104V624H10V730Z"  />
<glyph unicode="&#xF0;" horiz-adv-x="611" d="M218 651Q187 670 155 684T93 709L165 762Q200 749 235 733T302 696L424 762L470 709L366 653Q408 621 444 580T507 489T549 380T565 255Q565 200 546 152T493 67T411 9T306 -12Q248 -12 201 9T119 66T65 151T46 255Q46 313 64 362T117 446T199 502T306 522Q332 522 353 516T390 500H392Q345 563 283 608L154 539L108 592L218 651ZM146 255Q146 221 155 187T184 126T234 81T306 64Q347 64 377 81T426 125T455 187T465 255Q465 291 454 325T423 387T373 430T306 446Q268 446 239 430T189 387T157 326T146 255Z"  />
<glyph unicode="&#xF1;" horiz-adv-x="611" d="M80 510H171V429H173Q194 473 240 497T340 522Q439 522 485 464T531 303V0H437V264Q437 354 414 398T329 446Q289 446 260 431T211 388T183 321T174 236V0H80V510ZM136 586Q138 602 143 621T159 658T187 686T230 698Q249 698 270 691T311 675T349 659T384 652Q407 650 417 665T430 698H476Q474 682 469 663T453 626T425 598T382 586Q362 586 342 593T301 609T263 625T228 632Q205 634 195 619T182 586H136Z"  />
<glyph unicode="&#xF2;" horiz-adv-x="611" d="M146 255Q146 221 155 187T184 126T234 81T306 64Q347 64 377 81T426 125T455 187T465 255Q465 291 454 325T423 387T373 430T306 446Q268 446 239 430T189 387T157 326T146 255ZM46 255Q46 313 64 362T117 446T199 502T306 522Q364 522 412 502T494 447T546 362T565 255Q565 200 546 152T493 67T411 9T306 -12Q248 -12 201 9T119 66T65 151T46 255ZM372 581H305L174 725H283L372 581Z"  />
<glyph unicode="&#xF3;" horiz-adv-x="611" d="M146 255Q146 221 155 187T184 126T234 81T306 64Q347 64 377 81T426 125T455 187T465 255Q465 291 454 325T423 387T373 430T306 446Q268 446 239 430T189 387T157 326T146 255ZM46 255Q46 313 64 362T117 446T199 502T306 522Q364 522 412 502T494 447T546 362T565 255Q565 200 546 152T493 67T411 9T306 -12Q248 -12 201 9T119 66T65 151T46 255ZM329 725H438L307 581H240L329 725Z"  />
<glyph unicode="&#xF4;" horiz-adv-x="611" d="M146 255Q146 221 155 187T184 126T234 81T306 64Q347 64 377 81T426 125T455 187T465 255Q465 291 454 325T423 387T373 430T306 446Q268 446 239 430T189 387T157 326T146 255ZM46 255Q46 313 64 362T117 446T199 502T306 522Q364 522 412 502T494 447T546 362T565 255Q565 200 546 152T493 67T411 9T306 -12Q248 -12 201 9T119 66T65 151T46 255ZM260 725H351L451 581H371L305 679L240 581H161L260 725Z"  />
<glyph unicode="&#xF5;" horiz-adv-x="611" d="M146 255Q146 221 155 187T184 126T234 81T306 64Q347 64 377 81T426 125T455 187T465 255Q465 291 454 325T423 387T373 430T306 446Q268 446 239 430T189 387T157 326T146 255ZM46 255Q46 313 64 362T117 446T199 502T306 522Q364 522 412 502T494 447T546 362T565 255Q565 200 546 152T493 67T411 9T306 -12Q248 -12 201 9T119 66T65 151T46 255ZM136 586Q138 602 143 621T159 658T187 686T230 698Q249 698 270 691T311 675T349 659T384 652Q407 650 417 665T430 698H476Q474 682 469 663T453 626T425 598T382 586Q362 586 342 593T301 609T263 625T228 632Q205 634 195 619T182 586H136Z"  />
<glyph unicode="&#xF6;" horiz-adv-x="611" d="M146 255Q146 221 155 187T184 126T234 81T306 64Q347 64 377 81T426 125T455 187T465 255Q465 291 454 325T423 387T373 430T306 446Q268 446 239 430T189 387T157 326T146 255ZM46 255Q46 313 64 362T117 446T199 502T306 522Q364 522 412 502T494 447T546 362T565 255Q565 200 546 152T493 67T411 9T306 -12Q248 -12 201 9T119 66T65 151T46 255ZM341 730H435V624H341V730ZM177 730H271V624H177V730Z"  />
<glyph unicode="&#xF7;" horiz-adv-x="600" d="M224 46Q224 78 246 100T301 122Q331 122 354 100T377 46Q377 32 371 18T355 -7T331 -24T302 -31Q286 -31 272 -25T247 -8T230 17T224 46ZM224 460Q224 492 246 514T301 537Q316 537 329 531T353 514T370 489T377 460Q377 446 371 432T355 408T331 391T302 384Q286 384 272 390T247 406T230 431T224 460ZM47 297H553V209H47V297Z"  />
<glyph unicode="&#xF8;" horiz-adv-x="611" d="M121 65Q85 102 66 150T46 255Q46 313 64 362T117 446T199 502T306 522Q396 522 459 476L512 541L542 516L489 451Q526 415 545 365T565 255Q565 200 546 152T493 67T411 9T306 -12Q260 -12 221 1T151 38L94 -31L64 -6L121 65ZM204 103Q223 85 248 75T306 64Q347 64 377 81T426 125T455 187T465 255Q465 325 429 378L204 103ZM403 408Q384 426 360 436T306 446Q268 446 239 430T189 387T157 326T146 255Q146 224 154 193T179 135L403 408Z"  />
<glyph unicode="&#xF9;" horiz-adv-x="611" d="M531 0H440V81H438Q417 37 371 13T271 -12Q172 -12 126 46T80 207V510H174V246Q174 156 197 112T282 64Q322 64 351 79T400 122T428 188T437 274V510H531V0ZM372 581H305L174 725H283L372 581Z"  />
<glyph unicode="&#xFA;" horiz-adv-x="611" d="M531 0H440V81H438Q417 37 371 13T271 -12Q172 -12 126 46T80 207V510H174V246Q174 156 197 112T282 64Q322 64 351 79T400 122T428 188T437 274V510H531V0ZM329 725H438L307 581H240L329 725Z"  />
<glyph unicode="&#xFB;" horiz-adv-x="611" d="M531 0H440V81H438Q417 37 371 13T271 -12Q172 -12 126 46T80 207V510H174V246Q174 156 197 112T282 64Q322 64 351 79T400 122T428 188T437 274V510H531V0ZM260 725H351L451 581H371L305 679L240 581H161L260 725Z"  />
<glyph unicode="&#xFC;" horiz-adv-x="611" d="M531 0H440V81H438Q417 37 371 13T271 -12Q172 -12 126 46T80 207V510H174V246Q174 156 197 112T282 64Q322 64 351 79T400 122T428 188T437 274V510H531V0ZM341 730H435V624H341V730ZM177 730H271V624H177V730Z"  />
<glyph unicode="&#xFD;" horiz-adv-x="500" d="M42 -138Q51 -141 62 -143T86 -146Q117 -146 138 -128T173 -87T192 -44T198 -20Q198 -12 192 4T180 34L7 510H110L247 88H249L389 510H484L296 -11Q283 -48 268 -85T232 -153T178 -203T100 -222Q77 -222 63 -220T36 -215L42 -138ZM273 725H382L251 581H184L273 725Z"  />
<glyph unicode="&#xFE;" horiz-adv-x="611" d="M465 257Q466 291 459 325T434 386T390 429T325 446Q287 446 259 430T211 386T183 325T174 254Q174 222 182 189T209 127T255 82T324 64Q362 64 389 83T433 130T458 193T465 257ZM80 750H174V440H176Q198 475 238 498T345 522Q400 522 441 501T510 445T551 362T565 264Q565 211 553 162T514 74T446 12T346 -12Q278 -12 238 11T176 70H174V-210H80V750Z"  />
<glyph unicode="&#xFF;" horiz-adv-x="500" d="M42 -138Q51 -141 62 -143T86 -146Q117 -146 138 -128T173 -87T192 -44T198 -20Q198 -12 192 4T180 34L7 510H110L247 88H249L389 510H484L296 -11Q283 -48 268 -85T232 -153T178 -203T100 -222Q77 -222 63 -220T36 -215L42 -138ZM285 730H379V624H285V730ZM121 730H215V624H121V730Z"  />
<glyph unicode="&#x100;" horiz-adv-x="722" d="M359 604L220 258H498L359 604ZM310 698H415L710 0H601L530 176H188L117 0H12L310 698ZM215 841H511V783H215V841Z"  />
<glyph unicode="&#x101;" horiz-adv-x="556" d="M383 243Q368 243 353 244T323 245Q304 245 274 243T216 230T167 201T146 147Q146 127 155 112T177 86T208 70T241 64Q311 64 347 102T383 198V243ZM104 474Q139 495 181 508T272 522Q382 522 429 469T477 311V100Q477 56 478 34T481 0H393V66H391Q383 54 369 41T336 16T291 -4T233 -12Q192 -12 158 -3T98 25T60 75T46 147Q46 195 69 227T128 278T205 306T283 315Q311 315 333 315Q355 315 383 313Q383 379 356 412T257 446Q217 446 178 432T109 394L104 474ZM130 673H426V615H130V673Z"  />
<glyph unicode="&#x102;" horiz-adv-x="722" d="M359 604L220 258H498L359 604ZM310 698H415L710 0H601L530 176H188L117 0H12L310 698ZM259 890Q267 848 295 830T364 812Q405 812 433 830T469 890H518Q511 825 471 790T364 754Q298 754 258 789T210 890H259Z"  />
<glyph unicode="&#x103;" horiz-adv-x="556" d="M383 243Q368 243 353 244T323 245Q304 245 274 243T216 230T167 201T146 147Q146 127 155 112T177 86T208 70T241 64Q311 64 347 102T383 198V243ZM104 474Q139 495 181 508T272 522Q382 522 429 469T477 311V100Q477 56 478 34T481 0H393V66H391Q383 54 369 41T336 16T291 -4T233 -12Q192 -12 158 -3T98 25T60 75T46 147Q46 195 69 227T128 278T205 306T283 315Q311 315 333 315Q355 315 383 313Q383 379 356 412T257 446Q217 446 178 432T109 394L104 474ZM174 722Q182 680 210 662T279 644Q320 644 348 662T384 722H433Q426 657 386 622T279 586Q213 586 173 621T125 722H174Z"  />
<glyph unicode="&#x104;" horiz-adv-x="722" d="M650 0Q624 -21 607 -38T581 -70T568 -98T564 -124Q564 -148 573 -159T597 -170Q630 -170 653 -141L684 -149Q662 -181 636 -195T570 -210Q561 -210 547 -209T520 -200T498 -176T488 -128Q488 -121 491 -109T507 -79T541 -42T602 0H601L530 176H188L117 0H12L310 698H415L710 0H650ZM359 604L220 258H498L359 604Z"  />
<glyph unicode="&#x105;" horiz-adv-x="556" d="M460 0Q434 -21 417 -38T391 -70T378 -98T374 -124Q374 -148 383 -159T407 -170Q440 -170 463 -141L494 -149Q472 -181 446 -195T380 -210Q371 -210 357 -209T330 -200T308 -176T298 -128Q298 -121 301 -109T317 -79T351 -42T412 0H393V66H391Q383 54 369 41T336 16T291 -4T233 -12Q192 -12 158 -3T98 25T60 75T46 147Q46 195 69 227T128 278T205 306T283 315H333Q355 315 383 313Q383 379 356 412T257 446Q217 446 178 432T109 394L104 474Q139 495 181 508T272 522Q382 522 429 469T477 311V100Q477 56 478 34T481 0H460ZM383 243Q368 243 353 244T323 245Q304 245 274 243T216 230T167 201T146 147Q146 127 155 112T177 86T208 70T241 64Q311 64 347 102T383 198V243Z"  />
<glyph unicode="&#x106;" horiz-adv-x="611" d="M571 583Q505 622 427 622Q367 622 318 602T233 545T178 458T159 349Q159 287 179 237T236 151T320 96T422 76Q441 76 462 78T503 85T542 96T574 110L580 13Q540 -4 496 -8T421 -12Q338 -12 270 13T154 86T80 201T53 352Q53 433 80 499T157 612T274 684T422 710Q463 710 502 704T579 680L571 583ZM428 893H537L406 749H339L428 893Z"  />
<glyph unicode="&#x107;" horiz-adv-x="444" d="M404 424Q377 435 351 440T302 446Q263 446 233 430T181 387T149 326T138 255Q138 221 147 187T177 126T230 81T308 64Q332 64 359 71T409 93L416 9Q387 -5 356 -8T298 -12Q240 -12 193 9T111 66T57 151T38 255Q38 313 56 362T109 446T191 502T298 522Q327 522 359 516T412 502L404 424ZM308 725H417L286 581H219L308 725Z"  />
<glyph unicode="&#x108;" horiz-adv-x="611" d="M571 583Q505 622 427 622Q367 622 318 602T233 545T178 458T159 349Q159 287 179 237T236 151T320 96T422 76Q441 76 462 78T503 85T542 96T574 110L580 13Q540 -4 496 -8T421 -12Q338 -12 270 13T154 86T80 201T53 352Q53 433 80 499T157 612T274 684T422 710Q463 710 502 704T579 680L571 583ZM347 893H438L538 749H458L392 847L327 749H248L347 893Z"  />
<glyph unicode="&#x109;" horiz-adv-x="444" d="M404 424Q377 435 351 440T302 446Q263 446 233 430T181 387T149 326T138 255Q138 221 147 187T177 126T230 81T308 64Q332 64 359 71T409 93L416 9Q387 -5 356 -8T298 -12Q240 -12 193 9T111 66T57 151T38 255Q38 313 56 362T109 446T191 502T298 522Q327 522 359 516T412 502L404 424ZM229 725H320L420 581H340L274 679L209 581H130L229 725Z"  />
<glyph unicode="&#x10A;" horiz-adv-x="611" d="M571 583Q505 622 427 622Q367 622 318 602T233 545T178 458T159 349Q159 287 179 237T236 151T320 96T422 76Q441 76 462 78T503 85T542 96T574 110L580 13Q540 -4 496 -8T421 -12Q338 -12 270 13T154 86T80 201T53 352Q53 433 80 499T157 612T274 684T422 710Q463 710 502 704T579 680L571 583ZM344 856H438V756H344V856Z"  />
<glyph unicode="&#x10B;" horiz-adv-x="444" d="M404 424Q377 435 351 440T302 446Q263 446 233 430T181 387T149 326T138 255Q138 221 147 187T177 126T230 81T308 64Q332 64 359 71T409 93L416 9Q387 -5 356 -8T298 -12Q240 -12 193 9T111 66T57 151T38 255Q38 313 56 362T109 446T191 502T298 522Q327 522 359 516T412 502L404 424ZM232 730H326V624H232V730Z"  />
<glyph unicode="&#x10C;" horiz-adv-x="611" d="M571 583Q505 622 427 622Q367 622 318 602T233 545T178 458T159 349Q159 287 179 237T236 151T320 96T422 76Q441 76 462 78T503 85T542 96T574 110L580 13Q540 -4 496 -8T421 -12Q338 -12 270 13T154 86T80 201T53 352Q53 433 80 499T157 612T274 684T422 710Q463 710 502 704T579 680L571 583ZM436 749H345L245 893H325L391 795L456 893H535L436 749Z"  />
<glyph unicode="&#x10D;" horiz-adv-x="444" d="M404 424Q377 435 351 440T302 446Q263 446 233 430T181 387T149 326T138 255Q138 221 147 187T177 126T230 81T308 64Q332 64 359 71T409 93L416 9Q387 -5 356 -8T298 -12Q240 -12 193 9T111 66T57 151T38 255Q38 313 56 362T109 446T191 502T298 522Q327 522 359 516T412 502L404 424ZM323 581H232L132 725H212L278 627L343 725H422L323 581Z"  />
<glyph unicode="&#x10E;" horiz-adv-x="722" d="M183 88H288Q417 88 486 152T555 351Q555 412 536 460T482 541T401 592T300 610H183V88ZM83 698H289Q367 698 434 675T552 607T632 500T661 355Q661 267 635 201T561 90T444 23T289 0H83V698ZM356 749H265L165 893H245L311 795L376 893H455L356 749Z"  />
<glyph unicode="&#x10F;" horiz-adv-x="654" d="M146 257Q145 227 153 193T178 131T222 83T287 64Q327 64 355 81T402 127T428 188T437 254Q437 290 428 324T400 386T353 429T286 446Q248 446 221 430T177 387T153 326T146 257ZM441 72H439Q430 58 414 43T377 16T327 -4T265 -12Q207 -12 166 11T98 74T59 162T46 264Q46 315 59 362T100 444T169 501T266 522Q333 522 373 499T435 440H437V750H531V0H441V72ZM612 725H704L657 532H591L612 725Z"  />
<glyph unicode="&#x110;" horiz-adv-x="722" d="M83 342H15V406H83V698H289Q367 698 434 675T552 607T632 500T661 355Q661 267 635 201T561 90T444 23T289 0H83V342ZM183 406H366V342H183V88H288Q417 88 486 152T555 351Q555 407 537 454T484 536T403 590T298 610H183V406Z"  />
<glyph unicode="&#x111;" horiz-adv-x="611" d="M441 72H439Q430 58 414 43T377 16T327 -4T265 -12Q207 -12 166 11T98 74T59 162T46 264Q46 315 59 362T100 444T169 501T266 522Q333 522 373 499T435 440H437V605H252V666H437V750H531V666H605V605H531V0H441V72ZM146 257Q145 227 153 193T178 131T222 83T287 64Q327 64 355 81T402 127T428 188T437 254Q437 290 428 324T400 386T353 429T286 446Q248 446 221 430T177 387T153 326T146 257Z"  />
<glyph unicode="&#x112;" horiz-adv-x="556" d="M94 698H485V610H194V406H459V318H194V88H485V0H94V698ZM140 841H436V783H140V841Z"  />
<glyph unicode="&#x113;" horiz-adv-x="556" d="M410 304Q410 333 402 359T377 404T337 435T283 446Q248 446 224 433T183 400T158 354T146 304H410ZM471 21Q457 16 442 11T409 0T366 -8T310 -12Q242 -12 193 8T111 64T62 151T46 264Q46 321 63 368T111 449T187 503T285 522Q349 522 392 500T461 440T498 348T510 234H146Q146 196 159 165T196 112T250 77T314 64Q337 64 361 69T407 82T445 99T471 115V21ZM139 673H435V615H139V673Z"  />
<glyph unicode="&#x114;" horiz-adv-x="556" d="M94 698H485V610H194V406H459V318H194V88H485V0H94V698ZM186 890Q194 848 222 830T291 812Q332 812 360 830T396 890H445Q438 825 398 790T291 754Q225 754 185 789T137 890H186Z"  />
<glyph unicode="&#x115;" horiz-adv-x="556" d="M410 304Q410 333 402 359T377 404T337 435T283 446Q248 446 224 433T183 400T158 354T146 304H410ZM471 21Q457 16 442 11T409 0T366 -8T310 -12Q242 -12 193 8T111 64T62 151T46 264Q46 321 63 368T111 449T187 503T285 522Q349 522 392 500T461 440T498 348T510 234H146Q146 196 159 165T196 112T250 77T314 64Q337 64 361 69T407 82T445 99T471 115V21ZM182 722Q190 680 218 662T287 644Q328 644 356 662T392 722H441Q434 657 394 622T287 586Q221 586 181 621T133 722H182Z"  />
<glyph unicode="&#x116;" horiz-adv-x="556" d="M94 698H485V610H194V406H459V318H194V88H485V0H94V698ZM249 856H343V756H249V856Z"  />
<glyph unicode="&#x117;" horiz-adv-x="556" d="M410 304Q410 333 402 359T377 404T337 435T283 446Q248 446 224 433T183 400T158 354T146 304H410ZM471 21Q457 16 442 11T409 0T366 -8T310 -12Q242 -12 193 8T111 64T62 151T46 264Q46 321 63 368T111 449T187 503T285 522Q349 522 392 500T461 440T498 348T510 234H146Q146 196 159 165T196 112T250 77T314 64Q337 64 361 69T407 82T445 99T471 115V21ZM241 730H335V624H241V730Z"  />
<glyph unicode="&#x118;" horiz-adv-x="556" d="M445 0Q419 -21 402 -38T376 -70T363 -98T359 -124Q359 -148 368 -159T392 -170Q425 -170 448 -141L479 -149Q457 -181 431 -195T365 -210Q356 -210 342 -209T315 -200T293 -176T283 -128Q283 -121 286 -109T302 -79T336 -42T397 0H94V698H485V610H194V406H459V318H194V88H485V0H445Z"  />
<glyph unicode="&#x119;" horiz-adv-x="556" d="M471 21Q457 16 442 11T409 0T365 -8Q355 -10 343 -11Q326 -25 314 -38Q297 -55 288 -70T275 -98T271 -124Q271 -148 280 -159T304 -170Q337 -170 360 -141L391 -149Q369 -181 343 -195T277 -210Q268 -210 254 -209T227 -200T205 -176T195 -128Q195 -121 198 -109T214 -79T248 -42Q265 -27 289 -11Q234 -9 192 8Q143 28 111 64T62 151T46 264Q46 321 63 368T111 449T187 503T285 522Q349 522 392 500T461 440T498 348T510 234H146Q146 196 159 165T196 112T250 77T314 64Q337 64 361 69T407 82T445 99T471 115V21ZM410 304Q410 333 402 359T377 404T337 435T283 446Q248 446 224 433T183 400T158 354T146 304H410Z"  />
<glyph unicode="&#x11A;" horiz-adv-x="556" d="M94 698H485V610H194V406H459V318H194V88H485V0H94V698ZM334 749H243L143 893H223L289 795L354 893H433L334 749Z"  />
<glyph unicode="&#x11B;" horiz-adv-x="556" d="M410 304Q410 333 402 359T377 404T337 435T283 446Q248 446 224 433T183 400T158 354T146 304H410ZM471 21Q457 16 442 11T409 0T366 -8T310 -12Q242 -12 193 8T111 64T62 151T46 264Q46 321 63 368T111 449T187 503T285 522Q349 522 392 500T461 440T498 348T510 234H146Q146 196 159 165T196 112T250 77T314 64Q337 64 361 69T407 82T445 99T471 115V21ZM328 581H237L137 725H217L283 627L348 725H427L328 581Z"  />
<glyph unicode="&#x11C;" horiz-adv-x="722" d="M619 574Q582 598 539 610T427 622Q367 622 318 602T233 544T178 457T159 349Q159 287 179 237T236 151T320 96T422 76Q448 76 465 77T494 80T516 84T534 88V300H387V382H634V19Q605 9 554 -1T421 -12Q338 -12 270 13T154 86T80 201T53 352Q53 433 80 499T157 612T274 684T422 710Q460 710 489 708T541 700T584 689T627 675L619 574ZM355 893H446L546 749H466L400 847L335 749H256L355 893Z"  />
<glyph unicode="&#x11D;" horiz-adv-x="611" d="M288 76Q321 76 348 89T395 126T426 181T437 249Q437 289 428 324T400 387T353 430T288 446Q252 446 226 429T182 384T155 323T146 256Q146 220 156 188T184 130T228 91T288 76ZM531 22Q531 -94 468 -158T268 -222Q248 -222 229 -221T187 -215T141 -205T85 -187L95 -100Q122 -112 144 -121T188 -135T231 -143T279 -146Q354 -146 395 -99T437 29V79H435Q405 39 359 20T264 0Q209 0 168 20T100 76T60 156T46 251Q46 300 60 348T102 435T173 498T274 522Q342 522 381 499T442 434H444V510H531V22ZM254 725H345L445 581H365L299 679L234 581H155L254 725Z"  />
<glyph unicode="&#x11E;" horiz-adv-x="722" d="M619 574Q582 598 539 610T427 622Q367 622 318 602T233 544T178 457T159 349Q159 287 179 237T236 151T320 96T422 76Q448 76 465 77T494 80T516 84T534 88V300H387V382H634V19Q605 9 554 -1T421 -12Q338 -12 270 13T154 86T80 201T53 352Q53 433 80 499T157 612T274 684T422 710Q460 710 489 708T541 700T584 689T627 675L619 574ZM299 890Q307 848 335 830T404 812Q445 812 473 830T509 890H558Q551 825 511 790T404 754Q338 754 298 789T250 890H299Z"  />
<glyph unicode="&#x11F;" horiz-adv-x="611" d="M288 76Q321 76 348 89T395 126T426 181T437 249Q437 289 428 324T400 387T353 430T288 446Q252 446 226 429T182 384T155 323T146 256Q146 220 156 188T184 130T228 91T288 76ZM531 22Q531 -94 468 -158T268 -222Q248 -222 229 -221T187 -215T141 -205T85 -187L95 -100Q122 -112 144 -121T188 -135T231 -143T279 -146Q354 -146 395 -99T437 29V79H435Q405 39 359 20T264 0Q209 0 168 20T100 76T60 156T46 251Q46 300 60 348T102 435T173 498T274 522Q342 522 381 499T442 434H444V510H531V22ZM198 722Q206 680 234 662T303 644Q344 644 372 662T408 722H457Q450 657 410 622T303 586Q237 586 197 621T149 722H198Z"  />
<glyph unicode="&#x120;" horiz-adv-x="722" d="M619 574Q582 598 539 610T427 622Q367 622 318 602T233 544T178 457T159 349Q159 287 179 237T236 151T320 96T422 76Q448 76 465 77T494 80T516 84T534 88V300H387V382H634V19Q605 9 554 -1T421 -12Q338 -12 270 13T154 86T80 201T53 352Q53 433 80 499T157 612T274 684T422 710Q460 710 489 708T541 700T584 689T627 675L619 574ZM356 856H450V756H356V856Z"  />
<glyph unicode="&#x121;" horiz-adv-x="611" d="M288 76Q321 76 348 89T395 126T426 181T437 249Q437 289 428 324T400 387T353 430T288 446Q252 446 226 429T182 384T155 323T146 256Q146 220 156 188T184 130T228 91T288 76ZM531 22Q531 -94 468 -158T268 -222Q248 -222 229 -221T187 -215T141 -205T85 -187L95 -100Q122 -112 144 -121T188 -135T231 -143T279 -146Q354 -146 395 -99T437 29V79H435Q405 39 359 20T264 0Q209 0 168 20T100 76T60 156T46 251Q46 300 60 348T102 435T173 498T274 522Q342 522 381 499T442 434H444V510H531V22ZM255 730H349V624H255V730Z"  />
<glyph unicode="&#x122;" horiz-adv-x="722" d="M619 574Q582 598 539 610T427 622Q367 622 318 602T233 544T178 457T159 349Q159 287 179 237T236 151T320 96T422 76Q448 76 465 77T494 80T516 84T534 88V300H387V382H634V19Q605 9 554 -1T421 -12Q338 -12 270 13T154 86T80 201T53 352Q53 433 80 499T157 612T274 684T422 710Q460 710 489 708T541 700T584 689T627 675L619 574ZM356 -78H451L396 -222H321L356 -78Z"  />
<glyph unicode="&#x123;" horiz-adv-x="611" d="M288 76Q321 76 348 89T395 126T426 181T437 249Q437 289 428 324T400 387T353 430T288 446Q252 446 226 429T182 384T155 323T146 256Q146 220 156 188T184 130T228 91T288 76ZM531 22Q531 -94 468 -158T268 -222Q248 -222 229 -221T187 -215T141 -205T85 -187L95 -100Q122 -112 144 -121T188 -135T231 -143T279 -146Q354 -146 395 -99T437 29V79H435Q405 39 359 20T264 0Q209 0 168 20T100 76T60 156T46 251Q46 300 60 348T102 435T173 498T274 522Q342 522 381 499T442 434H444V510H531V22ZM335 581H243L298 725H370L335 581Z"  />
<glyph unicode="&#x124;" horiz-adv-x="722" d="M94 698H194V406H528V698H628V0H528V318H194V0H94V698ZM318 893H409L509 749H429L363 847L298 749H219L318 893Z"  />
<glyph unicode="&#x125;" horiz-adv-x="611" d="M80 750H174V437H176Q202 478 244 500T340 522Q439 522 485 464T531 303V0H437V264Q437 354 414 398T329 446Q289 446 260 431T211 388T183 321T174 236V0H80V750ZM265 933H356L456 789H376L310 887L245 789H166L265 933Z"  />
<glyph unicode="&#x126;" horiz-adv-x="722" d="M94 698H194V558H528V698H628V0H528V303H194V0H94V698ZM528 383V497H194V383H528Z"  />
<glyph unicode="&#x127;" horiz-adv-x="611" d="M80 750H174V666H359V605H174V437H176Q202 478 244 500T340 522Q439 522 485 464T531 303V0H437V264Q437 354 414 398T329 446Q289 446 260 431T211 388T183 321T174 236V0H80V605H6V666H80V750Z"  />
<glyph unicode="&#x128;" horiz-adv-x="278" d="M89 698H189V0H89V698ZM-30 754Q-28 770 -23 789T-7 826T21 854T64 866Q83 866 104 859T145 843T183 827T218 820Q241 818 251 833T264 866H310Q308 850 303 831T287 794T259 766T216 754Q196 754 176 761T135 777T97 793T62 800Q39 802 29 787T16 754H-30Z"  />
<glyph unicode="&#x129;" horiz-adv-x="278" d="M92 510H186V0H92V510ZM-29 586Q-27 602 -22 621T-6 658T22 686T65 698Q84 698 105 691T146 675T184 659T219 652Q242 650 252 665T265 698H311Q309 682 304 663T288 626T260 598T217 586Q197 586 177 593T136 609T98 625T63 632Q40 634 30 619T17 586H-29Z"  />
<glyph unicode="&#x12A;" horiz-adv-x="278" d="M89 698H189V0H89V698ZM-9 841H287V783H-9V841Z"  />
<glyph unicode="&#x12B;" horiz-adv-x="278" d="M92 510H186V0H92V510ZM-8 673H288V615H-8V673Z"  />
<glyph unicode="&#x12E;" horiz-adv-x="278" d="M189 0Q163 -21 146 -38T120 -70T107 -98T103 -124Q103 -148 112 -159T136 -170Q169 -170 192 -141L223 -149Q201 -181 175 -195T109 -210Q100 -210 86 -209T59 -200T37 -176T27 -128Q27 -121 30 -109T46 -79T80 -42T141 0H89V698H189V0Z"  />
<glyph unicode="&#x12F;" horiz-adv-x="278" d="M186 0Q160 -21 143 -38T117 -70T104 -98T100 -124Q100 -148 109 -159T133 -170Q166 -170 189 -141L220 -149Q198 -181 172 -195T106 -210Q97 -210 83 -209T56 -200T34 -176T24 -128Q24 -121 27 -109T43 -79T77 -42T138 0H92V510H186V0ZM192 624H86V730H192V624Z"  />
<glyph unicode="&#x130;" horiz-adv-x="278" d="M89 698H189V0H89V698ZM92 856H186V756H92V856Z"  />
<glyph unicode="&#x131;" horiz-adv-x="278" d="M92 510H186V0H92V510Z"  />
<glyph unicode="&#x132;" horiz-adv-x="643" d="M89 698H189V0H89V698ZM275 86Q292 80 308 78T338 76Q372 76 394 85T429 112T447 155T452 212V698H552V180Q552 143 543 109T511 47T451 4T356 -12Q306 -12 275 0V86Z"  />
<glyph unicode="&#x133;" horiz-adv-x="539" d="M192 624H86V730H192V624ZM92 510H186V0H92V510ZM453 624H347V730H453V624ZM248 -137Q257 -139 264 -139T286 -140Q319 -140 336 -111T353 -32V510H447V-18Q447 -46 445 -81T428 -147T385 -200T303 -222Q288 -222 272 -221T245 -218L248 -137Z"  />
<glyph unicode="&#x134;" horiz-adv-x="389" d="M21 86Q38 80 54 78T84 76Q118 76 140 85T175 112T193 155T198 212V698H298V180Q298 143 289 109T257 47T197 4T102 -12Q52 -12 21 0V86ZM196 893H287L387 749H307L241 847L176 749H97L196 893Z"  />
<glyph unicode="&#x135;" horiz-adv-x="278" d="M-13 -137Q-4 -139 3 -139T25 -140Q58 -140 75 -111T92 -32V510H186V-18Q186 -46 184 -81T167 -147T124 -200T42 -222Q27 -222 11 -221T-16 -218L-13 -137ZM90 725H181L281 581H201L135 679L70 581H-9L90 725Z"  />
<glyph unicode="&#x136;" horiz-adv-x="667" d="M94 698H194V391L492 698H625L297 368L651 0H505L194 342V0H94V698ZM309 -78H404L349 -222H274L309 -78Z"  />
<glyph unicode="&#x137;" horiz-adv-x="556" d="M80 750H174V303L379 510H507L270 284L537 0H402L174 262V0H80V750ZM254 -78H349L294 -222H219L254 -78Z"  />
<glyph unicode="&#x139;" horiz-adv-x="500" d="M88 698H188V88H480V0H88V698ZM162 893H271L140 749H73L162 893Z"  />
<glyph unicode="&#x13A;" horiz-adv-x="278" d="M92 750H186V0H92V750ZM171 933H280L149 789H82L171 933Z"  />
<glyph unicode="&#x13B;" horiz-adv-x="500" d="M88 698H188V88H480V0H88V698ZM233 -78H328L273 -222H198L233 -78Z"  />
<glyph unicode="&#x13C;" horiz-adv-x="278" d="M92 750H186V0H92V750ZM91 -78H186L131 -222H56L91 -78Z"  />
<glyph unicode="&#x13D;" horiz-adv-x="500" d="M88 698H188V88H480V0H88V698ZM293 725H385L338 532H272L293 725Z"  />
<glyph unicode="&#x13E;" horiz-adv-x="309" d="M92 750H186V0H92V750ZM267 725H359L312 532H246L267 725Z"  />
<glyph unicode="&#x13F;" horiz-adv-x="500" d="M88 698H188V88H480V0H88V698ZM287 455H381V349H287V455Z"  />
<glyph unicode="&#x140;" horiz-adv-x="396" d="M92 750H186V0H92V750ZM274 455H368V349H274V455Z"  />
<glyph unicode="&#x141;" horiz-adv-x="500" d="M88 236L24 198V270L88 308V698H188V366L384 481V409L188 294V88H480V0H88V236Z"  />
<glyph unicode="&#x142;" horiz-adv-x="278" d="M92 340L28 289V360L92 411V750H186V485L250 536V465L186 414V0H92V340Z"  />
<glyph unicode="&#x143;" horiz-adv-x="722" d="M88 698H224L532 136H534V698H634V0H506L190 574H188V0H88V698ZM414 893H523L392 749H325L414 893Z"  />
<glyph unicode="&#x144;" horiz-adv-x="611" d="M80 510H171V429H173Q194 473 240 497T340 522Q439 522 485 464T531 303V0H437V264Q437 354 414 398T329 446Q289 446 260 431T211 388T183 321T174 236V0H80V510ZM347 725H456L325 581H258L347 725Z"  />
<glyph unicode="&#x145;" horiz-adv-x="722" d="M88 698H224L532 136H534V698H634V0H506L190 574H188V0H88V698ZM336 -78H431L376 -222H301L336 -78Z"  />
<glyph unicode="&#x146;" horiz-adv-x="611" d="M80 510H171V429H173Q194 473 240 497T340 522Q439 522 485 464T531 303V0H437V264Q437 354 414 398T329 446Q289 446 260 431T211 388T183 321T174 236V0H80V510ZM265 -78H360L305 -222H230L265 -78Z"  />
<glyph unicode="&#x147;" horiz-adv-x="722" d="M88 698H224L532 136H534V698H634V0H506L190 574H188V0H88V698ZM418 749H327L227 893H307L373 795L438 893H517L418 749Z"  />
<glyph unicode="&#x148;" horiz-adv-x="611" d="M80 510H171V429H173Q194 473 240 497T340 522Q439 522 485 464T531 303V0H437V264Q437 354 414 398T329 446Q289 446 260 431T211 388T183 321T174 236V0H80V510ZM357 581H266L166 725H246L312 627L377 725H456L357 581Z"  />
<glyph unicode="&#x149;" horiz-adv-x="681" d="M80 510H171V429H173Q194 473 240 497T340 522Q439 522 485 464T531 303V0H437V264Q437 354 414 398T329 446Q289 446 260 431T211 388T183 321T174 236V0H80V510ZM-5 677H87L40 484H-26L-5 677Z"  />
<glyph unicode="&#x14C;" horiz-adv-x="778" d="M53 349Q53 427 75 493T141 607T247 682T389 710Q468 710 530 683T636 607T702 493T725 349Q725 269 703 203T637 89T532 15T389 -12Q309 -12 247 14T141 89T76 203T53 349ZM159 349Q159 297 172 248T214 161T285 99T389 76Q449 76 492 99T564 160T605 248T619 349Q619 402 605 451T562 539T490 599T389 622Q331 622 288 600T217 539T174 452T159 349ZM245 841H541V783H245V841Z"  />
<glyph unicode="&#x14D;" horiz-adv-x="611" d="M146 255Q146 221 155 187T184 126T234 81T306 64Q347 64 377 81T426 125T455 187T465 255Q465 291 454 325T423 387T373 430T306 446Q268 446 239 430T189 387T157 326T146 255ZM46 255Q46 313 64 362T117 446T199 502T306 522Q364 522 412 502T494 447T546 362T565 255Q565 200 546 152T493 67T411 9T306 -12Q248 -12 201 9T119 66T65 151T46 255ZM158 673H454V615H158V673Z"  />
<glyph unicode="&#x14E;" horiz-adv-x="778" d="M53 349Q53 427 75 493T141 607T247 682T389 710Q468 710 530 683T636 607T702 493T725 349Q725 269 703 203T637 89T532 15T389 -12Q309 -12 247 14T141 89T76 203T53 349ZM159 349Q159 297 172 248T214 161T285 99T389 76Q449 76 492 99T564 160T605 248T619 349Q619 402 605 451T562 539T490 599T389 622Q331 622 288 600T217 539T174 452T159 349ZM284 890Q292 848 320 830T389 812Q430 812 458 830T494 890H543Q536 825 496 790T389 754Q323 754 283 789T235 890H284Z"  />
<glyph unicode="&#x14F;" horiz-adv-x="611" d="M146 255Q146 221 155 187T184 126T234 81T306 64Q347 64 377 81T426 125T455 187T465 255Q465 291 454 325T423 387T373 430T306 446Q268 446 239 430T189 387T157 326T146 255ZM46 255Q46 313 64 362T117 446T199 502T306 522Q364 522 412 502T494 447T546 362T565 255Q565 200 546 152T493 67T411 9T306 -12Q248 -12 201 9T119 66T65 151T46 255ZM202 722Q210 680 238 662T307 644Q348 644 376 662T412 722H461Q454 657 414 622T307 586Q241 586 201 621T153 722H202Z"  />
<glyph unicode="&#x150;" horiz-adv-x="778" d="M53 349Q53 427 75 493T141 607T247 682T389 710Q468 710 530 683T636 607T702 493T725 349Q725 269 703 203T637 89T532 15T389 -12Q309 -12 247 14T141 89T76 203T53 349ZM159 349Q159 297 172 248T214 161T285 99T389 76Q449 76 492 99T564 160T605 248T619 349Q619 402 605 451T562 539T490 599T389 622Q331 622 288 600T217 539T174 452T159 349ZM515 893H624L493 749H426L515 893ZM334 893H443L312 749H245L334 893Z"  />
<glyph unicode="&#x151;" horiz-adv-x="611" d="M146 255Q146 221 155 187T184 126T234 81T306 64Q347 64 377 81T426 125T455 187T465 255Q465 291 454 325T423 387T373 430T306 446Q268 446 239 430T189 387T157 326T146 255ZM46 255Q46 313 64 362T117 446T199 502T306 522Q364 522 412 502T494 447T546 362T565 255Q565 200 546 152T493 67T411 9T306 -12Q248 -12 201 9T119 66T65 151T46 255ZM442 725H551L420 581H353L442 725ZM261 725H370L239 581H172L261 725Z"  />
<glyph unicode="&#x152;" horiz-adv-x="944" d="M875 610H593V406H855V318H593V88H882V0H592Q553 0 514 -3T436 -6Q353 -6 283 18T161 89T82 204T53 358Q53 437 81 501T160 610T281 679T438 704Q475 704 511 701T584 698H875V610ZM493 610Q478 612 463 614T432 616Q369 616 319 599T233 550T178 469T159 358Q159 292 179 241T235 154T322 101T433 82Q448 82 463 83T493 88V610Z"  />
<glyph unicode="&#x153;" horiz-adv-x="944" d="M803 304Q803 329 795 354T770 400T730 433T678 446Q647 446 622 435T579 405T552 360T542 304H803ZM141 255Q141 218 149 184T176 123T224 80T295 64Q332 64 360 81T408 125T438 187T448 255Q448 286 439 320T411 382T364 428T295 446Q255 446 226 428T178 382T150 320T141 255ZM850 22Q817 7 780 -2T704 -12Q631 -12 576 14T494 98Q480 68 458 47T408 13T352 -6T294 -12Q235 -12 188 8T109 64T59 149T41 255Q41 306 58 354T108 440T188 499T294 522Q364 522 417 497T497 422Q521 473 569 497T679 522Q744 522 787 498T856 434T892 342T903 234H542Q542 199 554 168T589 114T642 78T709 64Q747 64 785 79T850 117V22Z"  />
<glyph unicode="&#x154;" horiz-adv-x="611" d="M183 398H268Q340 398 379 427T419 507Q419 555 384 582T279 610H183V398ZM83 698H254Q306 698 354 692T441 666T502 609T525 509Q525 477 514 450T484 403T438 369T381 350V348Q404 339 418 325T449 278L581 0H467L360 242Q348 267 336 281T310 301T280 309T243 310H183V0H83V698ZM320 893H429L298 749H231L320 893Z"  />
<glyph unicode="&#x155;" horiz-adv-x="389" d="M80 510H168V431H170Q189 471 225 496T303 522Q324 522 337 520T365 515V431Q352 436 339 438T313 440Q250 440 212 384T174 232V0H80V510ZM267 725H376L245 581H178L267 725Z"  />
<glyph unicode="&#x156;" horiz-adv-x="611" d="M183 398H268Q340 398 379 427T419 507Q419 555 384 582T279 610H183V398ZM83 698H254Q306 698 354 692T441 666T502 609T525 509Q525 477 514 450T484 403T438 369T381 350V348Q404 339 418 325T449 278L581 0H467L360 242Q348 267 336 281T310 301T280 309T243 310H183V0H83V698ZM261 -78H356L301 -222H226L261 -78Z"  />
<glyph unicode="&#x157;" horiz-adv-x="389" d="M80 510H168V431H170Q189 471 225 496T303 522Q324 522 337 520T365 515V431Q352 436 339 438T313 440Q250 440 212 384T174 232V0H80V510ZM81 -78H176L121 -222H46L81 -78Z"  />
<glyph unicode="&#x158;" horiz-adv-x="611" d="M183 398H268Q340 398 379 427T419 507Q419 555 384 582T279 610H183V398ZM83 698H254Q306 698 354 692T441 666T502 609T525 509Q525 477 514 450T484 403T438 369T381 350V348Q404 339 418 325T449 278L581 0H467L360 242Q348 267 336 281T310 301T280 309T243 310H183V0H83V698ZM328 749H237L137 893H217L283 795L348 893H427L328 749Z"  />
<glyph unicode="&#x159;" horiz-adv-x="389" d="M80 510H168V431H170Q189 471 225 496T303 522Q324 522 337 520T365 515V431Q352 436 339 438T313 440Q250 440 212 384T174 232V0H80V510ZM276 581H185L85 725H165L231 627L296 725H375L276 581Z"  />
<glyph unicode="&#x15A;" horiz-adv-x="500" d="M406 593Q387 600 372 605T341 615T310 620T275 622Q254 622 233 618T193 603T164 574T153 529Q153 495 175 474T230 434T303 399T375 355T431 291T453 196Q453 140 433 101T378 36T297 0T198 -12Q161 -12 126 -3T55 17L65 110Q78 105 95 99T131 88T170 80T210 76Q231 76 255 82T300 102T333 137T347 190Q347 229 325 253T270 296T197 332T125 372T69 431T47 520Q47 566 64 601T112 661T183 697T271 710Q306 710 345 704T420 685L406 593ZM299 893H408L277 749H210L299 893Z"  />
<glyph unicode="&#x15B;" horiz-adv-x="389" d="M42 100Q56 91 72 84T104 73T134 66T159 64Q175 64 192 67T223 79T246 102T255 137Q255 160 239 176T198 205T145 232T92 263T51 305T34 365Q34 405 48 434T86 483T143 512T214 522Q247 522 275 516T331 502L323 420Q315 425 302 429T274 438T246 444T224 446Q188 446 161 431T134 384Q134 358 150 342T191 313T244 288T297 258T338 214T355 147Q355 106 340 76T300 27T243 -2T177 -12Q141 -12 105 -7T37 16L42 100ZM238 725H347L216 581H149L238 725Z"  />
<glyph unicode="&#x15C;" horiz-adv-x="500" d="M406 593Q387 600 372 605T341 615T310 620T275 622Q254 622 233 618T193 603T164 574T153 529Q153 495 175 474T230 434T303 399T375 355T431 291T453 196Q453 140 433 101T378 36T297 0T198 -12Q161 -12 126 -3T55 17L65 110Q78 105 95 99T131 88T170 80T210 76Q231 76 255 82T300 102T333 137T347 190Q347 229 325 253T270 296T197 332T125 372T69 431T47 520Q47 566 64 601T112 661T183 697T271 710Q306 710 345 704T420 685L406 593ZM214 893H305L405 749H325L259 847L194 749H115L214 893Z"  />
<glyph unicode="&#x15D;" horiz-adv-x="389" d="M42 100Q56 91 72 84T104 73T134 66T159 64Q175 64 192 67T223 79T246 102T255 137Q255 160 239 176T198 205T145 232T92 263T51 305T34 365Q34 405 48 434T86 483T143 512T214 522Q247 522 275 516T331 502L323 420Q315 425 302 429T274 438T246 444T224 446Q188 446 161 431T134 384Q134 358 150 342T191 313T244 288T297 258T338 214T355 147Q355 106 340 76T300 27T243 -2T177 -12Q141 -12 105 -7T37 16L42 100ZM153 725H244L344 581H264L198 679L133 581H54L153 725Z"  />
<glyph unicode="&#x15E;" horiz-adv-x="500" d="M406 593Q387 600 372 605T341 615T310 620T275 622Q254 622 233 618T193 603T164 574T153 529Q153 495 175 474T230 434T303 399T375 355T431 291T453 196Q453 140 433 101T378 36T296 0Q278 -5 259 -8L220 -59L222 -61Q230 -59 236 -58T250 -57Q264 -57 280 -61T309 -74T329 -97T337 -130Q337 -153 326 -169T294 -195T255 -207T216 -210Q164 -210 119 -188L135 -152Q151 -160 171 -165T209 -170Q233 -170 247 -161T261 -132Q261 -117 248 -107T215 -97Q195 -97 173 -107L155 -85L209 -12H198Q161 -12 126 -3T55 17L65 110Q78 105 95 99T131 88T170 80T210 76Q231 76 255 82T300 102T333 137T347 190Q347 229 325 253T270 296T197 332T125 372T69 431T47 520Q47 566 64 601T112 661T183 697T271 710Q306 710 345 704T420 685L406 593Z"  />
<glyph unicode="&#x15F;" horiz-adv-x="389" d="M42 100Q56 91 72 84T104 73T134 66T159 64Q175 64 192 67T223 79T246 102T255 137Q255 160 239 176T198 205T145 232T92 263T51 305T34 365Q34 405 48 434T86 483T143 512T214 522Q247 522 275 516T331 502L323 420Q315 425 302 429T274 438T246 444T224 446Q188 446 161 431T134 384Q134 358 150 342T191 313T244 288T297 258T338 214T355 147Q355 106 340 76T300 27T243 -2Q226 -7 208 -10L171 -59L173 -61Q181 -59 187 -58T201 -57Q215 -57 231 -61T260 -74T280 -97T288 -130Q288 -153 277 -169T245 -195T206 -207T167 -210Q115 -210 70 -188L86 -152Q102 -160 122 -165T160 -170Q184 -170 198 -161T212 -132Q212 -117 199 -107T166 -97Q146 -97 124 -107L106 -85L160 -12Q132 -10 105 -6Q69 -1 37 16L42 100Z"  />
<glyph unicode="&#x160;" horiz-adv-x="500" d="M406 593Q387 600 372 605T341 615T310 620T275 622Q254 622 233 618T193 603T164 574T153 529Q153 495 175 474T230 434T303 399T375 355T431 291T453 196Q453 140 433 101T378 36T297 0T198 -12Q161 -12 126 -3T55 17L65 110Q78 105 95 99T131 88T170 80T210 76Q231 76 255 82T300 102T333 137T347 190Q347 229 325 253T270 296T197 332T125 372T69 431T47 520Q47 566 64 601T112 661T183 697T271 710Q306 710 345 704T420 685L406 593ZM296 749H205L105 893H185L251 795L316 893H395L296 749Z"  />
<glyph unicode="&#x161;" horiz-adv-x="389" d="M42 100Q56 91 72 84T104 73T134 66T159 64Q175 64 192 67T223 79T246 102T255 137Q255 160 239 176T198 205T145 232T92 263T51 305T34 365Q34 405 48 434T86 483T143 512T214 522Q247 522 275 516T331 502L323 420Q315 425 302 429T274 438T246 444T224 446Q188 446 161 431T134 384Q134 358 150 342T191 313T244 288T297 258T338 214T355 147Q355 106 340 76T300 27T243 -2T177 -12Q141 -12 105 -7T37 16L42 100ZM241 581H150L50 725H130L196 627L261 725H340L241 581Z"  />
<glyph unicode="&#x162;" horiz-adv-x="556" d="M228 610H11V698H545V610H328V0H228V610ZM229 -78H324L269 -222H194L229 -78Z"  />
<glyph unicode="&#x163;" horiz-adv-x="389" d="M351 434H216V155Q216 110 239 87T295 64Q317 64 332 69T359 82V2Q343 -3 323 -7T279 -12Q206 -12 164 23T122 136V434H7V510H122V628L216 658V510H351V434ZM169 -78H264L209 -222H134L169 -78Z"  />
<glyph unicode="&#x164;" horiz-adv-x="556" d="M228 610H11V698H545V610H328V0H228V610ZM325 749H234L134 893H214L280 795L345 893H424L325 749Z"  />
<glyph unicode="&#x165;" horiz-adv-x="395" d="M351 434H216V155Q216 110 239 87T295 64Q317 64 332 69T359 82V2Q343 -3 323 -7T279 -12Q206 -12 164 23T122 136V434H7V510H122V628L216 658V510H351V434ZM306 745H398L351 552H285L306 745Z"  />
<glyph unicode="&#x166;" horiz-adv-x="556" d="M228 610H11V698H545V610H328V460H500V392H328V0H228V392H56V460H228V610Z"  />
<glyph unicode="&#x167;" horiz-adv-x="389" d="M351 434H216V336H330V273H216V155Q216 110 239 87T295 64Q317 64 332 69T359 82V2Q343 -3 323 -7T279 -12Q206 -12 164 23T122 136V273H24V336H122V434H7V510H122V628L216 658V510H351V434Z"  />
<glyph unicode="&#x168;" horiz-adv-x="722" d="M632 289Q632 141 562 65T361 -12Q231 -12 161 64T90 289V698H190V302Q190 252 198 211T227 139T280 93T361 76Q409 76 442 92T495 139T523 210T532 302V698H632V289ZM201 754Q203 770 208 789T224 826T252 854T295 866Q314 866 335 859T376 843T414 827T449 820Q472 818 482 833T495 866H541Q539 850 534 831T518 794T490 766T447 754Q427 754 407 761T366 777T328 793T293 800Q270 802 260 787T247 754H201Z"  />
<glyph unicode="&#x169;" horiz-adv-x="611" d="M531 0H440V81H438Q417 37 371 13T271 -12Q172 -12 126 46T80 207V510H174V246Q174 156 197 112T282 64Q322 64 351 79T400 122T428 188T437 274V510H531V0ZM138 586Q140 602 145 621T161 658T189 686T232 698Q251 698 272 691T313 675T351 659T386 652Q409 650 419 665T432 698H478Q476 682 471 663T455 626T427 598T384 586Q364 586 344 593T303 609T265 625T230 632Q207 634 197 619T184 586H138Z"  />
<glyph unicode="&#x16A;" horiz-adv-x="722" d="M632 289Q632 141 562 65T361 -12Q231 -12 161 64T90 289V698H190V302Q190 252 198 211T227 139T280 93T361 76Q409 76 442 92T495 139T523 210T532 302V698H632V289ZM214 841H510V783H214V841Z"  />
<glyph unicode="&#x16B;" horiz-adv-x="611" d="M531 0H440V81H438Q417 37 371 13T271 -12Q172 -12 126 46T80 207V510H174V246Q174 156 197 112T282 64Q322 64 351 79T400 122T428 188T437 274V510H531V0ZM156 673H452V615H156V673Z"  />
<glyph unicode="&#x16C;" horiz-adv-x="722" d="M632 289Q632 141 562 65T361 -12Q231 -12 161 64T90 289V698H190V302Q190 252 198 211T227 139T280 93T361 76Q409 76 442 92T495 139T523 210T532 302V698H632V289ZM261 890Q269 848 297 830T366 812Q407 812 435 830T471 890H520Q513 825 473 790T366 754Q300 754 260 789T212 890H261Z"  />
<glyph unicode="&#x16D;" horiz-adv-x="611" d="M531 0H440V81H438Q417 37 371 13T271 -12Q172 -12 126 46T80 207V510H174V246Q174 156 197 112T282 64Q322 64 351 79T400 122T428 188T437 274V510H531V0ZM202 722Q210 680 238 662T307 644Q348 644 376 662T412 722H461Q454 657 414 622T307 586Q241 586 201 621T153 722H202Z"  />
<glyph unicode="&#x16E;" horiz-adv-x="722" d="M632 289Q632 141 562 65T361 -12Q231 -12 161 64T90 289V698H190V302Q190 252 198 211T227 139T280 93T361 76Q409 76 442 92T495 139T523 210T532 302V698H632V289ZM368 893Q343 893 325 875T306 831Q306 806 324 788T368 769Q392 769 411 788T430 831Q430 856 412 874T368 893ZM368 933Q389 933 407 925T440 903T462 871T470 831Q470 810 462 792T440 759T408 737T368 729Q347 729 329 737T296 759T274 791T266 831Q266 852 274 870T296 903T328 925T368 933Z"  />
<glyph unicode="&#x16F;" horiz-adv-x="611" d="M531 0H440V81H438Q417 37 371 13T271 -12Q172 -12 126 46T80 207V510H174V246Q174 156 197 112T282 64Q322 64 351 79T400 122T428 188T437 274V510H531V0ZM303 727Q278 727 260 709T241 665Q241 640 259 622T303 603Q327 603 346 622T365 665Q365 690 347 708T303 727ZM303 767Q324 767 342 759T375 737T397 705T405 665Q405 644 397 626T375 593T343 571T303 563Q282 563 264 571T231 593T209 625T201 665Q201 686 209 704T231 737T263 759T303 767Z"  />
<glyph unicode="&#x170;" horiz-adv-x="722" d="M632 289Q632 141 562 65T361 -12Q231 -12 161 64T90 289V698H190V302Q190 252 198 211T227 139T280 93T361 76Q409 76 442 92T495 139T523 210T532 302V698H632V289ZM491 893H600L469 749H402L491 893ZM310 893H419L288 749H221L310 893Z"  />
<glyph unicode="&#x171;" horiz-adv-x="611" d="M531 0H440V81H438Q417 37 371 13T271 -12Q172 -12 126 46T80 207V510H174V246Q174 156 197 112T282 64Q322 64 351 79T400 122T428 188T437 274V510H531V0ZM436 725H545L414 581H347L436 725ZM255 725H364L233 581H166L255 725Z"  />
<glyph unicode="&#x172;" horiz-adv-x="722" d="M632 289Q632 141 561 64Q509 7 423 -7Q403 -24 389 -38Q372 -55 363 -70T350 -98T346 -124Q346 -148 355 -159T379 -170Q412 -170 435 -141L466 -149Q444 -181 418 -195T352 -210Q343 -210 329 -209T302 -200T280 -176T270 -128Q270 -121 273 -109T289 -79T323 -42Q340 -27 364 -12H361Q231 -12 161 64T90 289V698H190V302Q190 252 198 211T227 139T280 93T361 76Q409 76 442 92T495 139T523 210T532 302V698H632V289Z"  />
<glyph unicode="&#x173;" horiz-adv-x="611" d="M505 0Q479 -21 462 -38T436 -70T423 -98T419 -124Q419 -148 428 -159T452 -170Q485 -170 508 -141L539 -149Q517 -181 491 -195T425 -210Q416 -210 402 -209T375 -200T353 -176T343 -128Q343 -121 346 -109T362 -79T396 -42T457 0H440V81H438Q417 37 371 13T271 -12Q172 -12 126 46T80 207V510H174V246Q174 156 197 112T282 64Q322 64 351 79T400 122T428 188T437 274V510H531V0H505Z"  />
<glyph unicode="&#x174;" horiz-adv-x="1000" d="M2 698H112L279 100H281L430 698H572L723 100H725L892 698H998L783 0H654L502 610H500L347 0H213L2 698ZM458 893H549L649 749H569L503 847L438 749H359L458 893Z"  />
<glyph unicode="&#x175;" horiz-adv-x="833" d="M657 0H548L416 428H414L285 0H176L12 510H115L232 88H234L364 510H475L603 88H605L729 510H821L657 0ZM371 725H462L562 581H482L416 679L351 581H272L371 725Z"  />
<glyph unicode="&#x176;" horiz-adv-x="667" d="M284 292L11 698H128L336 385L539 698H656L384 292V0H284V292ZM293 893H384L484 749H404L338 847L273 749H194L293 893Z"  />
<glyph unicode="&#x177;" horiz-adv-x="500" d="M42 -138Q51 -141 62 -143T86 -146Q117 -146 138 -128T173 -87T192 -44T198 -20Q198 -12 192 4T180 34L7 510H110L247 88H249L389 510H484L296 -11Q283 -48 268 -85T232 -153T178 -203T100 -222Q77 -222 63 -220T36 -215L42 -138ZM208 725H299L399 581H319L253 679L188 581H109L208 725Z"  />
<glyph unicode="&#x178;" horiz-adv-x="667" d="M284 292L11 698H128L336 385L539 698H656L384 292V0H284V292ZM369 857H463V757H369V857ZM205 857H299V757H205V857Z"  />
<glyph unicode="&#x179;" horiz-adv-x="556" d="M32 90L394 610H44V698H509V608L148 88H515V0H32V90ZM322 893H431L300 749H233L322 893Z"  />
<glyph unicode="&#x17A;" horiz-adv-x="500" d="M43 82L337 434H57V510H446V428L152 76H457V0H43V82ZM299 725H408L277 581H210L299 725Z"  />
<glyph unicode="&#x17B;" horiz-adv-x="556" d="M32 90L394 610H44V698H509V608L148 88H515V0H32V90ZM241 856H335V756H241V856Z"  />
<glyph unicode="&#x17C;" horiz-adv-x="500" d="M43 82L337 434H57V510H446V428L152 76H457V0H43V82ZM213 730H307V624H213V730Z"  />
<glyph unicode="&#x17D;" horiz-adv-x="556" d="M32 90L394 610H44V698H509V608L148 88H515V0H32V90ZM324 749H233L133 893H213L279 795L344 893H423L324 749Z"  />
<glyph unicode="&#x17E;" horiz-adv-x="500" d="M43 82L337 434H57V510H446V428L152 76H457V0H43V82ZM296 581H205L105 725H185L251 627L316 725H395L296 581Z"  />
<glyph unicode="&#x192;" horiz-adv-x="556" d="M461 344H335L266 -24Q258 -67 248 -103T219 -165T167 -207T84 -222Q66 -222 55 -221T33 -217L49 -136Q56 -138 62 -139T79 -140Q103 -140 118 -131T142 -107T157 -73T166 -34L237 344H125L138 414H250L271 523Q278 560 289 593T320 653T371 694T450 710Q469 710 487 707T523 702L509 622Q498 624 489 626T468 628Q440 628 424 620T397 597T381 562T370 518L349 414H475L461 344Z"  />
<glyph unicode="&#x218;" horiz-adv-x="500" d="M406 593Q387 600 372 605T341 615T310 620T275 622Q254 622 233 618T193 603T164 574T153 529Q153 495 175 474T230 434T303 399T375 355T431 291T453 196Q453 140 433 101T378 36T297 0T198 -12Q161 -12 126 -3T55 17L65 110Q78 105 95 99T131 88T170 80T210 76Q231 76 255 82T300 102T333 137T347 190Q347 229 325 253T270 296T197 332T125 372T69 431T47 520Q47 566 64 601T112 661T183 697T271 710Q306 710 345 704T420 685L406 593ZM201 -78H296L241 -222H166L201 -78Z"  />
<glyph unicode="&#x219;" horiz-adv-x="389" d="M42 100Q56 91 72 84T104 73T134 66T159 64Q175 64 192 67T223 79T246 102T255 137Q255 160 239 176T198 205T145 232T92 263T51 305T34 365Q34 405 48 434T86 483T143 512T214 522Q247 522 275 516T331 502L323 420Q315 425 302 429T274 438T246 444T224 446Q188 446 161 431T134 384Q134 358 150 342T191 313T244 288T297 258T338 214T355 147Q355 106 340 76T300 27T243 -2T177 -12Q141 -12 105 -7T37 16L42 100ZM149 -78H244L189 -222H114L149 -78Z"  />
<glyph unicode="&#x21A;" horiz-adv-x="556" d="M228 610H11V698H545V610H328V0H228V610ZM229 -78H324L269 -222H194L229 -78Z"  />
<glyph unicode="&#x21B;" horiz-adv-x="389" d="M351 434H216V155Q216 110 239 87T295 64Q317 64 332 69T359 82V2Q343 -3 323 -7T279 -12Q206 -12 164 23T122 136V434H7V510H122V628L216 658V510H351V434ZM169 -78H264L209 -222H134L169 -78Z"  />
<glyph unicode="&#x237;" horiz-adv-x="278" d="M-13 -137Q-4 -139 3 -139T25 -140Q58 -140 75 -111T92 -32V510H186V-18Q186 -46 184 -81T167 -147T124 -200T42 -222Q27 -222 11 -221T-16 -218L-13 -137Z"  />
<glyph unicode="&#x2C6;" horiz-adv-x="278" d="M93 725H184L284 581H204L138 679L73 581H-6L93 725Z"  />
<glyph unicode="&#x2C7;" horiz-adv-x="278" d="M185 581H94L-6 725H74L140 627L205 725H284L185 581Z"  />
<glyph unicode="&#x2C9;" horiz-adv-x="278" d="M-9 673H287V615H-9V673Z"  />
<glyph unicode="&#x2D8;" horiz-adv-x="278" d="M34 722Q42 680 70 662T139 644Q180 644 208 662T244 722H293Q286 657 246 622T139 586Q73 586 33 621T-15 722H34Z"  />
<glyph unicode="&#x2D9;" horiz-adv-x="278" d="M92 730H186V624H92V730Z"  />
<glyph unicode="&#x2DA;" horiz-adv-x="278" d="M139 727Q114 727 96 709T77 665Q77 640 95 622T139 603Q163 603 182 622T201 665Q201 690 183 708T139 727ZM139 767Q160 767 178 759T211 737T233 705T241 665Q241 644 233 626T211 593T179 571T139 563Q118 563 100 571T67 593T45 625T37 665Q37 686 45 704T67 737T99 759T139 767Z"  />
<glyph unicode="&#x2DB;" horiz-adv-x="278" d="M230 0Q204 -21 187 -38T161 -70T148 -98T144 -124Q144 -148 153 -159T177 -170Q210 -170 233 -141L264 -149Q242 -181 216 -195T150 -210Q141 -210 127 -209T100 -200T78 -176T68 -128Q68 -121 71 -109T87 -79T121 -42T182 0H230Z"  />
<glyph unicode="&#x2DC;" horiz-adv-x="278" d="M-31 586Q-29 602 -24 621T-8 658T20 686T63 698Q82 698 103 691T144 675T182 659T217 652Q240 650 250 665T263 698H309Q307 682 302 663T286 626T258 598T215 586Q195 586 175 593T134 609T96 625T61 632Q38 634 28 619T15 586H-31Z"  />
<glyph unicode="&#x2DD;" horiz-adv-x="278" d="M253 725H362L231 581H164L253 725ZM72 725H181L50 581H-17L72 725Z"  />
<glyph unicode="&#x394;" horiz-adv-x="674" d="M333 628L120 72H550L333 628ZM13 0L292 712H375L662 0H13Z"  />
<glyph unicode="&#x3A9;" horiz-adv-x="748" d="M432 0V183Q519 200 563 261T608 410Q608 462 590 505T540 581T464 631T368 649Q317 649 273 631T196 581T146 505T127 410Q127 368 138 330T172 261T227 211T304 183V0H47V67H240V139Q193 152 158 179T97 242T60 322T47 413Q47 480 72 537T142 634T244 698T368 721Q434 721 492 699T593 636T662 539T688 415Q688 367 676 323T639 243T579 179T496 139V67H688V0H432Z"  />
<glyph unicode="&#x3BC;" horiz-adv-x="611" d="M531 0H440V81H438Q417 37 371 13T271 -12Q242 -12 218 -8T174 8V-210H80V510H174V246Q174 156 197 112T282 64Q322 64 351 79T400 122T428 188T437 274V510H531V0Z"  />
<glyph unicode="&#x3C0;" horiz-adv-x="570" d="M547 11Q530 3 514 -1T478 -6Q448 -6 431 3T405 29T394 68T392 114V410H146V0H71V410H2V479H543V410H467V111Q467 89 473 74T505 58Q525 58 547 68V11H547Z"  />
<glyph unicode="&#x2013;" horiz-adv-x="500" d="M0 304H500V234H0V304Z"  />
<glyph unicode="&#x2014;" horiz-adv-x="1000" d="M0 304H1000V234H0V304Z"  />
<glyph unicode="&#x2018;" horiz-adv-x="278" d="M163 453H52L137 698H226L163 453Z"  />
<glyph unicode="&#x2019;" horiz-adv-x="278" d="M114 698H226L138 453H52L114 698Z"  />
<glyph unicode="&#x201A;" horiz-adv-x="278" d="M115 112H226L141 -133H52L115 112Z"  />
<glyph unicode="&#x201C;" horiz-adv-x="556" d="M396 453H286L370 698H460L396 453ZM208 453H96L182 698H270L208 453Z"  />
<glyph unicode="&#x201D;" horiz-adv-x="556" d="M349 698H460L375 453H286L349 698ZM159 698H270L185 453H96L159 698Z"  />
<glyph unicode="&#x201E;" horiz-adv-x="556" d="M349 112H460L375 -133H286L349 112ZM159 112H270L185 -133H96L159 112Z"  />
<glyph unicode="&#x2020;" horiz-adv-x="556" d="M234 453H67V523H234V698H322V523H489V453H322V0H234V453Z"  />
<glyph unicode="&#x2021;" horiz-adv-x="556" d="M322 162V0H234V162H67V232H234V466H67V536H234V698H322V536H489V466H322V232H489V162H322Z"  />
<glyph unicode="&#x2022;" horiz-adv-x="500" d="M76 349Q76 385 89 417T126 472T182 509T250 523Q286 523 318 510T374 473T411 417T425 349Q425 312 412 280T374 225T318 188T250 174Q214 174 182 187T127 224T90 280T76 349Z"  />
<glyph unicode="&#x2026;" horiz-adv-x="1000" d="M777 112H889V0H777V112ZM444 112H556V0H444V112ZM111 112H223V0H111V112Z"  />
<glyph unicode="&#x2030;" horiz-adv-x="1000" d="M153 380Q175 380 187 394T206 429T213 472T215 510Q215 527 215 549T209 592T191 626T153 640Q130 640 118 626T99 591T92 548T91 510Q91 495 92 473T99 430T117 395T153 380ZM847 -12Q804 -12 775 5T729 50T705 114T697 188Q697 228 703 264T726 328T772 372T847 388Q892 388 921 372T967 328T990 264T997 188Q997 150 990 114T965 50T919 5T847 -12ZM847 58Q869 58 881 72T900 107T907 150T909 188Q909 205 909 227T903 270T885 304T847 318Q824 318 812 304T793 269T786 226T785 188Q785 173 786 151T793 108T811 73T847 58ZM509 -12Q466 -12 437 5T391 50T367 114T359 188Q359 228 365 264T388 328T434 372T509 388Q554 388 583 372T629 328T652 264T659 188Q659 150 652 114T627 50T581 5T509 -12ZM509 58Q531 58 543 72T562 107T569 150T571 188Q571 205 571 227T565 270T547 304T509 318Q486 318 474 304T455 269T448 226T447 188Q447 173 448 151T455 108T473 73T509 58ZM511 720H583L150 -22H78L511 720ZM153 310Q110 310 81 327T35 372T11 436T3 510Q3 550 9 586T32 650T78 694T153 710Q198 710 227 694T273 650T296 586T303 510Q303 472 296 436T271 372T225 327T153 310Z"  />
<glyph unicode="&#x2039;" horiz-adv-x="278" d="M20 269L163 471H251L121 269L251 67H163L20 269Z"  />
<glyph unicode="&#x203A;" horiz-adv-x="278" d="M258 269L115 67H27L157 269L27 471H115L258 269Z"  />
<glyph unicode="&#x2044;" horiz-adv-x="167" d="M264 720H336L-97 -22H-169L264 720Z"  />
<glyph unicode="&#x20AC;" horiz-adv-x="556" d="M562 601Q538 614 502 621T438 628Q350 628 292 578T212 445H530L517 391H200Q195 349 200 307H499L487 253H212Q234 171 291 122T437 72Q467 72 501 78T562 97L568 10Q537 -2 500 -7T429 -12Q365 -12 311 6T214 58T143 141T101 253H6L19 307H94Q91 349 94 391H6L19 445H102Q115 505 144 554T216 637T313 691T429 710Q467 710 507 704T582 684L562 601Z"  />
<glyph unicode="&#x2113;" horiz-adv-x="500" d="M415 41Q356 -14 285 -14Q230 -14 194 17T158 114V228L100 166H98L72 203L158 287V546Q158 588 168 620T195 675T236 709T287 721Q335 721 366 687T397 593Q397 519 354 440T226 275V125Q226 99 233 82T251 56T275 42T301 38Q321 38 343 47T389 76H391L415 41H415ZM340 588Q340 626 325 649T287 673Q264 673 245 645T226 557V335Q282 400 311 465T340 588Z"  />
<glyph unicode="&#x2122;" horiz-adv-x="990" d="M484 698H602L711 417L818 698H936V282H860V600H858L741 282H679L562 600H560V282H484V698ZM182 628H54V698H386V628H258V282H182V628Z"  />
<glyph unicode="&#x2126;" horiz-adv-x="748" d="M432 0V183Q519 200 563 261T608 410Q608 462 590 505T540 581T464 631T368 649Q317 649 273 631T196 581T146 505T127 410Q127 368 138 330T172 261T227 211T304 183V0H47V67H240V139Q193 152 158 179T97 242T60 322T47 413Q47 480 72 537T142 634T244 698T368 721Q434 721 492 699T593 636T662 539T688 415Q688 367 676 323T639 243T579 179T496 139V67H688V0H432Z"  />
<glyph unicode="&#x212E;" horiz-adv-x="600" d="M157 259V78Q216 19 302 19Q365 19 411 47T495 139L530 118Q507 82 484 57T433 15T373 -9T302 -17Q243 -17 196 4T114 63T62 151T44 259Q44 317 62 367T114 455T195 513T302 535Q360 535 407 515T489 458T542 371T561 259H157ZM448 295V440Q385 500 301 500Q217 500 157 440V295H448Z"  />
<glyph unicode="&#x2202;" horiz-adv-x="511" d="M389 280Q363 315 325 340T241 365Q208 365 183 352T141 318T116 268T107 210Q107 181 115 152T139 100T181 63T239 48Q281 48 309 71T355 130T381 206T389 280ZM469 362Q469 324 466 282T453 197T428 118T385 51T323 5T237 -12Q190 -12 152 6T88 55T47 127T33 213Q33 257 46 296T86 364T148 410T232 427Q279 427 321 407T393 351Q393 362 393 373T394 396Q394 436 386 482T357 567T304 632T221 658Q187 658 160 645T107 611L65 661Q98 690 135 705T218 721Q291 721 339 688T417 602T457 486T469 362Z"  />
<glyph unicode="&#x2206;" horiz-adv-x="674" d="M333 628L120 72H550L333 628ZM13 0L292 712H375L662 0H13Z"  />
<glyph unicode="&#x220F;" horiz-adv-x="719" d="M572 -214V714H146V-214H68V786H650V-214H572Z"  />
<glyph unicode="&#x2211;" horiz-adv-x="615" d="M25 -214V-150L347 290L39 722V786H577V714H140L441 290L122 -142H589V-214H25Z"  />
<glyph unicode="&#x2212;" horiz-adv-x="600" d="M47 297H553V209H47V297Z"  />
<glyph unicode="&#x2215;" horiz-adv-x="167" d="M264 720H336L-97 -22H-169L264 720Z"  />
<glyph unicode="&#x2219;" horiz-adv-x="278" d="M80 304Q81 328 98 345T140 362Q164 362 181 345T198 304Q199 280 182 262T140 244Q116 244 99 262T80 304Z"  />
<glyph unicode="&#x221A;" horiz-adv-x="504" d="M303 -214H228L66 120L19 98L-9 158L103 210L254 -107L438 786H514L303 -214Z"  />
<glyph unicode="&#x221E;" horiz-adv-x="759" d="M337 251Q323 264 306 279T269 308T228 331T187 341Q149 341 128 314T107 252Q107 214 129 190T190 166Q210 166 230 174T270 195T306 222T337 251ZM652 252Q652 290 631 316T570 342Q549 342 529 333T490 310T454 280T423 251Q439 236 455 221T490 194T529 174T573 166Q611 166 631 191T652 252ZM717 255Q717 222 707 194T678 144T632 110T570 98Q541 98 515 107T466 133T421 168T380 207Q359 188 338 169T294 134T245 109T189 99Q156 99 129 110T82 142T53 191T42 252Q42 284 52 312T80 362T126 395T187 408Q217 408 243 398T294 372T339 335T380 294Q400 314 420 334T464 372T513 399T569 410Q603 410 630 398T676 365T706 316T717 255Z"  />
<glyph unicode="&#x222B;" horiz-adv-x="554" d="M420 730Q420 712 408 702T378 692Q366 692 358 698T344 713T333 728T322 735Q307 735 300 715T292 670T291 623T292 594L293 555V44Q293 9 292 -35T280 -119T242 -186T167 -213Q156 -213 144 -210T121 -201T105 -185T98 -161Q98 -147 109 -136T135 -125Q147 -125 154 -131T167 -146T177 -160T187 -167Q200 -167 206 -145T214 -96T216 -45T215 -16V6V501Q215 525 214 555T215 617T223 679T243 733T280 771T341 786Q354 786 368 783T393 774T412 756T420 730Z"  />
<glyph unicode="&#x2248;" horiz-adv-x="593" d="M560 234Q557 206 549 180T525 134T486 101T431 89Q399 89 362 100T288 124T218 149T159 161Q127 161 108 137T84 83H32Q36 110 44 136T68 184T106 218T161 231Q194 231 229 220T301 196T371 171T435 160Q469 160 486 182T510 234H560H560ZM561 415Q558 387 550 361T525 314T486 282T431 269Q398 269 362 280T289 304T219 329T160 340Q128 340 109 316T84 263H33Q36 290 45 316T69 364T107 398T162 411Q194 411 230 400T302 376T372 351T436 340Q470 340 487 362T511 415H561H561Z"  />
<glyph unicode="&#x2260;" horiz-adv-x="593" d="M263 114L187 -32L125 0L184 114H43V186H221L288 313H43V384H326L403 532L465 500L404 384H550V313H367L300 186H550V114H263Z"  />
<glyph unicode="&#x2264;" horiz-adv-x="593" d="M43 -30V42H550V-30H43ZM43 266V341L550 528V450L142 304L550 159V82L43 266Z"  />
<glyph unicode="&#x2265;" horiz-adv-x="593" d="M43 -30V42H550V-30H43ZM43 82V159L451 304L43 450V528L550 341V266L43 82Z"  />
<glyph unicode="&#x25CA;" horiz-adv-x="593" d="M296 671L165 356L296 41L428 356L296 671ZM332 -35H260L89 356L260 747H332L504 356L332 -35Z"  />
<glyph unicode="&#xE300;" horiz-adv-x="278" d="M205 749H138L7 893H116L205 749Z"  />
<glyph unicode="&#xE301;" horiz-adv-x="278" d="M162 893H271L140 749H73L162 893Z"  />
<glyph unicode="&#xE302;" horiz-adv-x="278" d="M93 893H184L284 749H204L138 847L73 749H-6L93 893Z"  />
<glyph unicode="&#xE303;" horiz-adv-x="278" d="M185 749H94L-6 893H74L140 795L205 893H284L185 749Z"  />
<glyph unicode="&#xE304;" horiz-adv-x="278" d="M-31 754Q-29 770 -24 789T-8 826T20 854T63 866Q82 866 103 859T144 843T182 827T217 820Q240 818 250 833T263 866H309Q307 850 302 831T286 794T258 766T215 754Q195 754 175 761T134 777T96 793T61 800Q38 802 28 787T15 754H-31Z"  />
<glyph unicode="&#xE305;" horiz-adv-x="278" d="M174 856H268V756H174V856ZM10 856H104V756H10V856Z"  />
<glyph unicode="&#xE306;" horiz-adv-x="278" d="M-9 841H287V783H-9V841Z"  />
<glyph unicode="&#xE307;" horiz-adv-x="278" d="M34 890Q42 848 70 830T139 812Q180 812 208 830T244 890H293Q286 825 246 790T139 754Q73 754 33 789T-15 890H34Z"  />
<glyph unicode="&#xE308;" horiz-adv-x="278" d="M139 893Q114 893 96 875T77 831Q77 806 95 788T139 769Q163 769 182 788T201 831Q201 856 183 874T139 893ZM139 933Q160 933 178 925T211 903T233 871T241 831Q241 810 233 792T211 759T179 737T139 729Q118 729 100 737T67 759T45 791T37 831Q37 852 45 870T67 903T99 925T139 933Z"  />
<glyph unicode="&#xE309;" horiz-adv-x="278" d="M253 893H362L231 749H164L253 893ZM72 893H181L50 749H-17L72 893Z"  />
<glyph unicode="&#xE30A;" horiz-adv-x="278" d="M92 856H186V756H92V856Z"  />
<glyph unicode="&#xE30B;" horiz-adv-x="278" d="M25 725H117L70 532H4L25 725Z"  />
<glyph unicode="&#xE30C;" horiz-adv-x="278" d="M114 -78H209L154 -222H79L114 -78Z"  />
<glyph unicode="&#xE30D;" horiz-adv-x="278" d="M171 581H79L134 725H206L171 581Z"  />
<glyph unicode="&#xFB01;" horiz-adv-x="667" d="M141 434H21V510H141V557Q141 603 148 641T174 706T226 747T312 762Q330 762 345 760T375 756L371 680Q363 683 351 684T326 686Q296 686 278 677T251 652T238 613T235 565V510H370V434H235V0H141V434ZM581 624H475V730H581V624ZM481 510H575V0H481V510Z"  />
<glyph unicode="&#xFB02;" horiz-adv-x="667" d="M141 434H21V510H141V557Q141 603 148 641T174 706T226 747T312 762Q330 762 345 760T375 756L371 680Q363 683 351 684T326 686Q296 686 278 677T251 652T238 613T235 565V510H370V434H235V0H141V434ZM481 750H575V0H481V750Z"  />

</font>
</defs>
</svg>
